<?xml version="1.0" standalone="no"?>
<!DOCTYPE svg PUBLIC "-//W3C//DTD SVG 1.1//EN" "http://www.w3.org/Graphics/SVG/1.1/DTD/svg11.dtd" >
<svg xmlns="http://www.w3.org/2000/svg">
<metadata>Generated by IcoMoon</metadata>
<defs>
<font id="icomoon" horiz-adv-x="1024">
<font-face units-per-em="1024" ascent="960" descent="-64" />
<missing-glyph horiz-adv-x="1024" />
<glyph unicode="&#x20;" horiz-adv-x="512" d="" />
<glyph unicode="&#xe900;" glyph-name="bxs--coin-stack-1" d="M512 533.333c169.643 0 341.333 58.624 341.333 170.667s-171.691 170.667-341.333 170.667c-169.643 0-341.333-58.624-341.333-170.667s171.691-170.667 341.333-170.667zM170.667 533.333c0-112.043 171.691-170.667 341.333-170.667s341.333 58.624 341.333 170.667v85.333c0-112.043-171.691-170.667-341.333-170.667s-341.333 58.624-341.333 170.667v-85.333zM170.667 362.667c0-112.043 171.691-170.667 341.333-170.667s341.333 58.624 341.333 170.667v85.333c0-112.043-171.691-170.667-341.333-170.667s-341.333 58.624-341.333 170.667v-85.333zM170.667 192c0-112.043 171.691-170.667 341.333-170.667s341.333 58.624 341.333 170.667v85.333c0-112.043-171.691-170.667-341.333-170.667s-341.333 58.624-341.333 170.667v-85.333z" />
<glyph unicode="&#xe901;" glyph-name="copy" horiz-adv-x="1078" d="M899.277 678.615l-176.214 186.155c-2.991 3.158-6.602 5.672-10.596 7.388-3.999 1.717-8.305 2.6-12.66 2.596h-231.337c-43.412-0.35-84.967-17.652-115.8-48.214s-48.501-71.963-49.234-115.37v-381.312c-0.928-43.046 15.267-84.696 45.027-115.804 29.76-31.113 70.651-49.141 113.693-50.127h284.798c43.116 1.013 84.119 18.874 114.225 49.756s46.921 72.321 46.845 115.448v327.384c0.032 8.218-3.099 16.133-8.747 22.101zM807.758 682.156h-27.438c-15.355 0.169-30.019 6.414-40.782 17.369s-16.75 25.727-16.648 41.084v31.147l84.868-89.6zM746.318 227.926h-283.352c-26.083 0.771-50.794 11.862-68.706 30.839s-27.56 44.285-26.824 70.365v381.57c0.532 26.541 11.394 51.829 30.276 70.488s44.297 29.22 70.844 29.437h190.291v-69.803c-0.135-32.321 12.541-63.379 35.247-86.377 22.711-22.997 53.609-36.062 85.93-36.332h64v-289.366c0.065-26.225-10.111-51.437-28.359-70.268-18.254-18.836-43.137-29.798-69.346-30.553zM660.938 104.534c-16.637-12.676-37.069-19.364-57.985-18.987h-153.938c-59.3 0.205-116.11 23.87-158.017 65.822-41.907 41.957-65.507 98.794-65.642 158.095v259.669c-0.142 20.963 6.504 41.409 18.944 58.282 2.488 3.387 4.284 7.231 5.286 11.313s1.191 8.32 0.555 12.474c-0.636 4.154-2.084 8.142-4.261 11.737s-5.041 6.725-8.428 9.213c-3.387 2.488-7.231 4.284-11.313 5.287s-8.32 1.191-12.474 0.555c-4.154-0.635-8.142-2.084-11.737-4.261s-6.726-5.041-9.213-8.428c-20.424-27.949-31.409-61.681-31.36-96.299v-259.54c0.169-76.25 30.51-149.332 84.394-203.28s126.931-84.378 203.179-84.636h154.752c34.53 0.065 68.118 11.286 95.744 32.003 3.606 2.425 6.683 5.557 9.044 9.211 2.355 3.649 3.945 7.745 4.673 12.029 0.728 4.29 0.571 8.677-0.453 12.902s-2.9 8.197-5.508 11.674c-2.609 3.476-5.896 6.387-9.663 8.553s-7.939 3.546-12.256 4.047c-4.322 0.507-8.693 0.124-12.859-1.116-4.166-1.245-8.036-3.32-11.377-6.101l-0.086-0.216z" />
<glyph unicode="&#xe902;" glyph-name="delete" horiz-adv-x="1243" d="M954.909 587.952c-9.267 0.473-18.381-2.322-25.446-7.803s-11.542-13.23-12.5-21.637c0-2.987-25.768-288.427-40.287-407.464 0.102-8.931-1.851-17.781-5.727-25.98s-9.596-15.572-16.786-21.643c-7.19-6.064-15.696-10.693-24.971-13.59s-19.112-3.994-28.877-3.218c-126.953-2.128-250.159-2.128-366.337 0-9.528-0.512-19.069 0.775-28.028 3.767-8.959 2.999-17.144 7.643-24.045 13.648s-12.369 13.246-16.064 21.255c-3.694 8.016-5.537 16.64-5.411 25.329-14.523 120.322-39.819 404.909-40.288 407.896-0.369 4.202-1.643 8.297-3.75 12.050s-5.004 7.093-8.528 9.827c-3.523 2.734-7.604 4.809-12.008 6.107s-9.046 1.792-13.659 1.456c-4.614-0.336-9.11-1.497-13.232-3.416s-7.788-4.558-10.789-7.767c-3.002-3.21-5.279-6.925-6.704-10.936s-1.968-8.239-1.599-12.441c0.468-2.986 25.765-288.427 40.288-409.6 1.793-32.907 17.549-63.89 43.944-86.418s61.363-34.831 97.532-34.326c60.431-1.28 122.737-1.712 186.448-1.712 59.963 0 120.865 0.432 182.7 1.712 36.835-1.39 72.763 10.591 99.899 33.309 27.143 22.718 43.279 54.316 44.859 87.859 14.519 120.322 40.287 406.616 40.287 409.176 0.731 4.157 0.49 8.406-0.709 12.472s-3.328 7.853-6.246 11.117c-2.926 3.263-6.568 5.927-10.693 7.818-4.133 1.891-8.653 2.965-13.268 3.153zM1017.212 726.189h-153.651c-9.728-0.055-19.171 2.984-26.697 8.593s-12.668 13.435-14.533 22.127l-11.71 53.76c-5.405 18.4-17.342 34.655-33.953 46.231-16.603 11.576-36.952 17.823-57.864 17.769h-198.629c-21.318-0.113-41.993-6.668-58.78-18.638s-28.736-28.673-33.976-47.495l-11.243-52.054c-1.941-8.659-7.101-16.444-14.612-22.040s-16.91-8.662-26.614-8.68h-153.656c-9.318 0-18.254-3.372-24.843-9.373s-10.291-14.14-10.291-22.627c0-8.487 3.702-16.626 10.291-22.627s15.525-9.373 24.843-9.373h796.385c9.304 0.056 18.205 3.445 24.781 9.435s10.291 14.096 10.357 22.565c-0.161 8.556-3.957 16.72-10.606 22.771-6.641 6.050-15.609 9.513-25 9.656zM484.572 744.537l10.774 49.92c1.441 4.851 4.621 9.123 9.035 12.139s9.808 4.599 15.325 4.501h198.628c5.137 0.090 10.173-1.308 14.381-3.991 4.213-2.684 7.373-6.515 9.040-10.942l11.242-52.054c1.317-6.294 3.357-12.443 6.093-18.346h-281.078c3.028 5.987 5.231 12.293 6.559 18.774z" />
<glyph unicode="&#xe903;" glyph-name="tdesign--money-1" d="M512 426.667c-39.607 0-77.59-15.733-105.594-43.739-28.006-28.004-43.739-65.987-43.739-105.594s15.733-77.59 43.739-105.594c28.004-28.006 65.987-43.739 105.594-43.739s77.59 15.733 105.594 43.739c28.006 28.004 43.739 65.987 43.739 105.594s-15.733 77.59-43.739 105.594c-28.004 28.006-65.987 43.739-105.594 43.739zM448 277.333c0 16.974 6.744 33.253 18.744 45.256 12.003 12 28.282 18.744 45.256 18.744s33.253-6.744 45.256-18.744c12-12.003 18.744-28.282 18.744-45.256s-6.744-33.253-18.744-45.256c-12.003-12-28.282-18.744-45.256-18.744s-33.253 6.744-45.256 18.744c-12 12.003-18.744 28.282-18.744 45.256zM747.776 741.717l-135.636 190.166-498.732-398.42-27.648 0.297v-0.427h-21.76v-512h896v512h-41.045l-81.664 238.891-89.515-30.507zM828.799 533.333h-427.859l318.676 108.629 64.939 20.78 44.244-129.409zM663.467 712.96l-328.96-112.128 260.523 208.128 68.437-96zM149.333 184.788v185.176c18.013 6.356 34.374 16.664 47.885 30.167 13.51 13.505 23.828 29.859 30.195 47.87h569.173c6.361-18.018 16.677-34.382 30.188-47.892 13.509-13.512 29.874-23.828 47.892-30.188v-185.173c-18.018-6.361-34.382-16.677-47.892-30.188-13.512-13.509-23.828-29.874-30.188-47.892h-569.088c-6.392 18.020-16.727 34.384-30.25 47.899-13.523 13.517-29.893 23.842-47.915 30.223z" />
<glyph unicode="&#xe904;" glyph-name="Vector1" horiz-adv-x="1308" d="M1228.8 365.511l65.422-415.289h-566.044l65.422 415.289h435.2zM514.844 365.511l65.422-415.289h-566.044l65.422 415.289h435.2zM873.244 945.778l65.422-415.289h-566.044l65.422 415.289h435.2zM1311.289-64h-600.178l71.111 443.733h457.956l71.111-443.733zM745.244-35.556h531.911l-62.578 386.844h-406.756l-62.578-386.844zM597.333-64h-600.178l71.111 443.733h457.956l71.111-443.733zM31.289-35.556h531.911l-62.578 386.844h-406.756l-62.578-386.844zM955.733 516.267h-600.178l71.111 443.733h457.956l71.111-443.733zM389.689 544.711h531.911l-62.578 386.844h-406.756l-62.578-386.844z" />
<glyph unicode="&#xe905;" glyph-name="add-user" d="M421.547 337.067c-83.2 0-336.213 0-336.213-157.44 0-158.293 253.013-158.293 336.213-158.293s336.213 0 336.213 157.44c-0.427 158.293-253.44 158.293-336.213 158.293zM421.547 85.333c-180.48 0-272.213 31.573-272.213 94.293 0 61.867 91.733 93.44 272.213 93.44s272.213-31.573 272.213-94.293c0-62.72-91.733-93.44-272.213-93.44zM421.122 874.667c-60.012-0.978-117.245-25.462-159.398-68.188s-65.861-100.284-66.029-160.304c-0.168-60.020 23.219-117.71 65.133-160.671s99.007-67.764 159.013-69.077h1.281c60.766 0 119.045 24.14 162.012 67.108s67.106 101.246 67.106 162.012-24.138 119.044-67.106 162.013c-42.967 42.968-101.245 67.107-162.012 67.107zM421.122 480.427c-32.745-0.423-64.877 8.9-92.31 26.785s-48.93 43.522-61.755 73.654c-12.826 30.132-16.399 63.397-10.271 95.567s21.683 61.79 44.688 85.097c23.005 23.306 52.421 39.245 84.508 45.792s65.396 3.403 95.692-9.029c30.297-12.432 56.211-33.593 74.45-60.791 18.243-27.199 27.982-59.205 27.982-91.953 0.188-43.479-16.862-85.262-47.406-116.206s-72.1-48.531-115.578-48.914zM906.661 532.481h-55.467v54.613c0 8.487-3.374 16.626-9.375 22.628s-14.137 9.372-22.625 9.372c-8.488 0-16.629-3.371-22.625-9.372-6.002-6.001-9.375-14.141-9.375-22.628v-54.613h-55.040c-8.488 0-16.629-3.371-22.63-9.372s-9.37-14.141-9.37-22.628c0-8.487 3.368-16.626 9.37-22.627s14.143-9.373 22.63-9.373h55.040v-54.613c0-8.487 3.374-16.626 9.375-22.628 5.996-6 14.137-9.373 22.625-9.373s16.623 3.374 22.625 9.373c6.002 6.001 9.375 14.14 9.375 22.628v54.613h55.467c8.488 0 16.629 3.372 22.625 9.373 6.002 6.001 9.375 14.14 9.375 22.627s-3.374 16.626-9.375 22.628c-5.996 6.001-14.137 9.372-22.625 9.372z" />
<glyph unicode="&#xe906;" glyph-name="gozareshat" d="M751.36 808.533h-207.36v34.133c0 8.487-3.371 16.626-9.372 22.628s-14.141 9.372-22.628 9.372c-8.487 0-16.626-3.371-22.628-9.372s-9.372-14.141-9.372-22.628v-34.133h-207.403c-46.809-0.113-91.668-18.76-124.764-51.864s-51.732-77.967-51.834-124.776v-254.333c0.113-46.814 18.76-91.671 51.864-124.769 33.103-33.092 77.967-51.729 124.776-51.831h147.84l-129.877-124.541c-3.171-2.879-5.734-6.354-7.537-10.234-1.803-3.886-2.809-8.084-2.959-12.362s0.56-8.539 2.087-12.538c1.526-3.999 3.839-7.646 6.802-10.735s6.514-5.552 10.445-7.242c3.931-1.69 8.161-2.577 12.44-2.606s8.52 0.802 12.473 2.441c3.952 1.644 7.536 4.056 10.538 7.105l177.109 169.859 177.067-169.859c3.032-2.907 6.605-5.194 10.519-6.724 3.914-1.525 8.095-2.27 12.294-2.185 4.204 0.085 8.346 0.996 12.197 2.685 3.846 1.684 7.327 4.113 10.24 7.145 2.907 3.032 5.194 6.605 6.724 10.519s2.27 8.090 2.185 12.294c-0.085 4.204-0.996 8.346-2.679 12.197-1.69 3.846-4.119 7.327-7.151 10.24l-129.872 124.541h148.218c46.797 0.057 91.654 18.699 124.706 51.82 33.052 33.126 51.598 78.023 51.553 124.82v254.336c-0.114 46.809-18.762 91.668-51.866 124.764s-77.966 51.732-124.774 51.834zM864 377.6c0.034-29.821-11.776-58.436-32.836-79.548-21.060-21.117-49.641-33.007-79.462-33.047h-479.019c-29.85 0.063-58.459 11.947-79.574 33.047s-33.019 49.698-33.109 79.548v254.293c0.068 29.853 11.957 58.464 33.066 79.574s49.721 32.998 79.574 33.066h478.674c29.861-0.068 58.476-11.955 79.593-33.064s33.013-49.719 33.092-79.576v-254.293zM317.014 592.213c-8.487 0-16.626-3.371-22.628-9.372s-9.372-14.14-9.372-22.628v-192c0-8.488 3.371-16.629 9.372-22.625 6.001-6.002 14.141-9.375 22.628-9.375s16.626 3.374 22.628 9.375c6.001 5.996 9.372 14.137 9.372 22.625v192c0 8.487-3.371 16.626-9.372 22.628s-14.141 9.372-22.628 9.372zM512 680.533c-8.487 0-16.626-3.371-22.628-9.372s-9.372-14.14-9.372-22.628v-280.319c0-8.488 3.371-16.629 9.372-22.63 6.001-5.996 14.141-9.37 22.628-9.37s16.626 3.374 22.628 9.37c6.001 6.002 9.372 14.143 9.372 22.63v280.319c0 8.487-3.371 16.626-9.372 22.628s-14.141 9.372-22.628 9.372zM706.987 516.267c-8.488 0-16.629-3.371-22.63-9.372-5.996-6.001-9.37-14.14-9.37-22.628v-116.054c0-8.488 3.374-16.623 9.37-22.625 6.002-6.002 14.143-9.375 22.63-9.375s16.623 3.374 22.625 9.375c6.002 6.002 9.375 14.137 9.375 22.625v116.054c0 8.487-3.374 16.626-9.375 22.628s-14.137 9.372-22.625 9.372z" />
<glyph unicode="&#xe907;" glyph-name="home--outline" d="M896.256 646.357l-280.832 223.915c-29.571 23.588-66.279 36.434-104.107 36.434s-74.534-12.846-104.107-36.434l-278.827-223.829c-16.558-12.448-30.019-28.549-39.335-47.050s-14.239-38.903-14.382-59.617v-371.8c0.259-47.565 19.375-93.082 53.154-126.572s79.461-52.218 127.028-52.070h82.219c20.886-0.040 41.052 7.629 56.639 21.532 15.587 13.898 25.5 33.064 27.841 53.817 0.843 2.941 1.273 5.985 1.28 9.045v130.941c0.1 7.583 3.168 14.82 8.544 20.167 5.377 5.342 12.633 8.368 20.214 8.42h123.136c7.652 0.068 15.019-2.901 20.486-8.26 5.461-5.359 8.579-12.669 8.653-20.326v-131.197c0.21-22.067 8.994-43.19 24.496-58.891 15.508-15.707 36.517-24.758 58.578-25.247h82.051c47.593-0.193 93.321 18.512 127.135 52.008s52.952 79.041 53.214 126.635v372.526c-0.216 20.519-5.109 40.719-14.302 59.063-9.199 18.343-22.46 34.347-38.775 46.793zM885.333 167.976c-0.239-30.601-12.601-59.858-34.378-81.362-21.783-21.498-51.2-33.479-81.801-33.326h-81.323c-5.296 0.080-10.348 2.207-14.097 5.945-3.749 3.732-5.905 8.778-6.002 14.069v131.368c-0.102 24.622-9.967 48.196-27.426 65.553s-41.097 27.079-65.712 27.034h-123.352c-24.503-0.154-47.957-9.961-65.281-27.29-17.323-17.334-27.118-40.789-27.263-65.297v-123.733c-0.526-2.367-0.798-4.784-0.811-7.208-0.079-5.484-2.327-10.718-6.254-14.546s-9.21-5.951-14.696-5.894h-82.091c-30.603-0.154-60.021 11.827-81.801 33.326-21.78 21.504-34.144 50.762-34.381 81.362v371.203c0.141 11.040 2.837 21.898 7.878 31.722s12.29 18.345 21.178 24.897l279.381 224.128c18.337 14.349 40.951 22.145 64.234 22.145s45.898-7.796 64.235-22.145l281.304-224c8.67-6.529 15.741-14.948 20.673-24.618 4.927-9.671 7.589-20.337 7.782-31.19v-372.142z" />
<glyph unicode="&#xe908;" glyph-name="log-out" d="M628.27 282.027c-8.471-0.057-16.572-3.447-22.562-9.432-5.99-5.99-9.381-14.097-9.438-22.568v-40.107c-0.034-33.030-13.17-64.7-36.525-88.058-23.357-23.359-55.025-36.494-88.057-36.528h-208.213c-33.184 0.148-64.96 13.426-88.385 36.927-23.425 23.506-36.597 55.33-36.63 88.513v474.881c-0.011 16.42 3.216 32.681 9.495 47.853s15.488 28.958 27.099 40.569c11.61 11.61 25.395 20.819 40.567 27.097s31.434 9.504 47.854 9.493h207.786c33.118-0.123 64.843-13.334 88.261-36.752s36.623-55.144 36.749-88.261v-39.681c0-8.487 3.374-16.626 9.375-22.627s14.137-9.373 22.625-9.373c8.488 0 16.629 3.372 22.63 9.373s9.37 14.14 9.37 22.627v39.681c-0.023 50.123-19.94 98.185-55.381 133.627-35.447 35.442-83.505 55.363-133.628 55.385h-207.786c-50.099-0.101-98.117-20.048-133.542-55.473s-55.373-83.442-55.474-133.54v-474.881c0.011-50.165 19.917-98.281 55.349-133.791s83.502-55.524 133.667-55.649h208.213c50.013 0.011 97.975 19.883 133.337 55.25 35.368 35.362 55.233 83.325 55.245 133.336v40.107c0.006 4.204-0.814 8.368-2.418 12.254-1.61 3.886-3.965 7.413-6.94 10.388-2.97 2.97-6.502 5.325-10.388 6.935-3.88 1.604-8.050 2.429-12.254 2.423zM946.563 435.626c1.69 3.906 2.566 8.117 2.566 12.373s-0.876 8.468-2.566 12.373c-1.616 3.81-3.931 7.283-6.827 10.24l-124.587 124.587c-6.070 5.652-14.091 8.73-22.38 8.583-8.294-0.146-16.202-3.505-22.067-9.368-5.86-5.863-9.216-13.772-9.364-22.063-0.142-8.29 2.935-16.314 8.585-22.38l69.973-69.546h-435.202c-8.487 0-16.624-3.372-22.625-9.373s-9.375-14.14-9.375-22.627c0-8.487 3.374-16.627 9.375-22.628s14.139-9.372 22.625-9.372h435.202l-69.973-69.547c-5.951-6.025-9.29-14.148-9.29-22.613s3.339-16.594 9.29-22.613c2.964-2.975 6.491-5.342 10.371-6.952s8.038-2.441 12.237-2.441c4.204 0 8.368 0.831 12.248 2.441s7.401 3.977 10.371 6.952l124.587 124.586c0.996 1.178 1.855 2.466 2.56 3.84 1.718 1.597 3.169 3.472 4.267 5.547z" />
<glyph unicode="&#xe909;" glyph-name="setting" d="M511.447 567.681c-32.407 0.353-63.633-12.161-86.828-34.796s-36.467-53.545-36.906-85.952c-0.064-15.94 3.119-31.728 9.354-46.398 6.235-14.669 15.392-27.919 26.913-38.932 23.5-22.591 54.873-35.14 87.467-34.992 23.999-0.404 47.569 6.377 67.688 19.467 20.116 13.090 35.868 31.892 45.221 53.994 9.358 22.104 11.89 46.499 7.282 70.054s-16.156 45.194-33.149 62.141c-11.435 11.386-25.014 20.38-39.96 26.461-14.944 6.080-30.948 9.124-47.081 8.953zM540.886 21.117h-59.306c-11.715-0.319-23.378 1.695-34.303 5.939s-20.892 10.627-29.318 18.773c-8.425 8.146-15.138 17.897-19.746 28.672s-7.017 22.363-7.086 34.082c-0.874 20.759-9.683 40.385-24.61 54.841-14.926 14.45-34.83 22.613-55.604 22.818-13.483 0.54-26.83-2.873-38.399-9.819-10.182-6.11-21.473-10.138-33.223-11.856-11.749-1.724-23.724-1.092-35.23 1.843s-22.314 8.124-31.803 15.258c-9.489 7.14-17.468 16.088-23.478 26.328l-29.867 51.2c-7.982 13.164-12.273 28.228-12.423 43.617-0.15 15.394 3.847 30.538 11.57 43.856 8.306 14.262 20.42 25.936 34.986 33.701 11.575 6.241 21.069 15.735 27.308 27.31 10.333 17.643 13.249 38.663 8.107 58.453-5.263 20.333-18.282 37.794-36.267 48.64-10.14 5.718-19.034 13.409-26.156 22.618s-12.327 19.752-15.309 31.006c-2.983 11.253-3.682 22.99-2.056 34.518s5.543 22.614 11.521 32.604l29.013 50.347c12.128 20.45 31.81 35.312 54.799 41.379s47.441 2.852 68.081-8.951c11.793-6.344 25.009-9.575 38.4-9.387 14.182-0.036 28.146 3.502 40.6 10.288s22.996 16.601 30.654 28.539c7.016 11.242 10.576 24.298 10.239 37.547-0.817 16.011 3.519 31.862 12.374 45.227 8.211 13.194 19.56 24.152 33.035 31.894s28.657 12.030 44.191 12.479h61.441c15.647-0.188 30.989-4.361 44.574-12.125 13.591-7.764 24.974-18.863 33.081-32.249 8.442-13.531 12.601-29.293 11.947-45.227-0.501-13.209 2.913-26.272 9.813-37.547 11.327-17.682 28.848-30.499 49.129-35.944s41.859-3.125 60.524 6.505c13.659 7.766 29.087 11.881 44.8 11.946 15.679-0.031 31.078-4.139 44.692-11.918s24.974-18.963 32.961-32.456l29.013-50.347c6.087-9.998 10.092-21.123 11.776-32.706 1.69-11.584 1.018-23.388-1.963-34.707-2.987-11.263-8.232-21.8-15.417-30.97-7.191-9.169-16.174-16.778-26.396-22.364-9.006-5.257-16.856-12.273-23.086-20.63s-10.712-17.882-13.181-28.010c-2.566-9.747-3.135-19.913-1.667-29.886s4.932-19.544 10.2-28.141c6.184-11.469 15.508-20.938 26.88-27.304 14.404-8.146 26.567-19.723 35.413-33.712 7.623-13.346 11.56-28.479 11.412-43.844-0.154-15.371-4.386-30.424-12.265-43.617l-30.72-51.206c-8.010-13.375-19.314-24.479-32.831-32.25-13.522-7.765-28.809-11.941-44.396-12.117-16.236 0.040-32.154 4.46-46.080 12.8-11.537 7.026-24.912 10.445-38.4 9.808-20.85-0.091-40.863-8.209-55.876-22.67-15.019-14.461-23.888-34.15-24.764-54.977-0.529-23.74-10.428-46.308-27.534-62.777-17.106-16.464-40.033-25.498-63.775-25.122z" />
<glyph unicode="&#xe90a;" glyph-name="swap" d="M918.409 295.253c-2.992 2.953-6.537 5.279-10.433 6.855s-8.061 2.367-12.265 2.327c-4.204-0.040-8.357-0.91-12.22-2.56-3.868-1.644-7.367-4.045-10.308-7.049l-118.357-120.661v508.673c0 8.487-3.368 16.626-9.37 22.627s-14.143 9.373-22.63 9.373c-8.482 0-16.623-3.372-22.625-9.373s-9.375-14.14-9.375-22.627v-508.673l-118.312 120.661c-5.947 6.059-14.057 9.512-22.547 9.591s-16.663-3.22-22.723-9.165c-6.060-5.945-9.509-14.057-9.589-22.545s3.216-16.663 9.163-22.721l173.184-176.555c2.981-3.038 6.537-5.456 10.456-7.1 3.925-1.65 8.135-2.497 12.39-2.497s8.471 0.848 12.39 2.497c3.925 1.644 7.481 4.062 10.456 7.1l173.141 176.555c2.947 2.998 5.274 6.548 6.849 10.445 1.57 3.903 2.361 8.073 2.321 12.277s-0.91 8.357-2.554 12.225c-1.644 3.868-4.039 7.378-7.043 10.32zM324.059 822.613c-6.15 5.903-14.345 9.2-22.869 9.2s-16.719-3.297-22.869-9.2l-173.184-176.555c-5.638-6.124-8.672-14.202-8.459-22.523s3.656-16.233 9.6-22.061c5.944-5.828 13.922-9.114 22.247-9.161s16.34 3.145 22.351 8.903l118.315 120.619v-508.632c0-8.482 3.372-16.623 9.372-22.625s14.141-9.375 22.628-9.375c8.487 0 16.626 3.374 22.628 9.375s9.372 14.143 9.372 22.625v508.675l118.315-120.661c5.971-5.919 14.032-9.25 22.44-9.273s16.487 3.263 22.49 9.149c6.004 5.886 9.45 13.899 9.593 22.305s-3.028 16.532-8.827 22.619l-173.141 176.597z" />
<glyph unicode="&#xe90b;" glyph-name="upload-rectangle" d="M750.080 596.481h-40.107c-8.488 0-16.629-3.372-22.63-9.373s-9.37-14.14-9.37-22.627c0-8.487 3.368-16.627 9.37-22.628s14.143-9.372 22.63-9.372h40.107c33.030-0.034 64.705-13.171 88.058-36.528 23.359-23.357 36.494-55.027 36.528-88.059v-208.214c-0.125-33.115-13.335-64.842-36.75-88.263-23.415-23.415-55.142-36.625-88.257-36.75h-474.883c-33.209-0.046-65.077 13.096-88.599 36.54s-36.776 55.268-36.844 88.474v207.787c0.147 33.184 13.422 64.961 36.927 88.387s55.331 36.594 88.516 36.627h39.677c8.487 0 16.629 3.371 22.63 9.372s9.37 14.14 9.37 22.628c0 8.487-3.369 16.626-9.37 22.627s-14.143 9.373-22.63 9.373h-39.677c-50.165-0.011-98.28-19.916-133.792-55.348s-55.527-83.501-55.651-133.666v-207.787c0.124-50.165 20.139-98.236 55.651-133.666s83.627-55.336 133.792-55.347h474.883c50.119 0.023 98.179 19.945 133.621 55.387s55.364 83.507 55.387 133.626v208.214c-0.011 50.013-19.888 97.974-55.25 133.338s-83.325 55.237-133.336 55.249zM387.408 697.174c4.204-0.015 8.372 0.807 12.255 2.418s7.402 3.98 10.359 6.967l69.547 69.974v-435.201c0-8.488 3.374-16.629 9.375-22.625 6.001-6.002 14.138-9.375 22.625-9.375s16.629 3.374 22.63 9.375c6.001 5.996 9.37 14.137 9.37 22.625v435.201l69.545-69.974c2.93-3.144 6.468-5.665 10.394-7.414s8.158-2.69 12.459-2.766c4.295-0.076 8.562 0.715 12.544 2.324 3.988 1.609 7.606 4.005 10.65 7.043 3.038 3.039 5.433 6.658 7.037 10.643 1.61 3.984 2.401 8.253 2.327 12.55-0.080 4.296-1.018 8.533-2.765 12.459-1.752 3.925-4.272 7.459-7.413 10.388l-124.59 124.587c-0.222 0.243-0.527 0.395-0.854 0.427-5.927 5.472-13.694 8.517-21.761 8.533-4.213 0.079-8.395-0.713-12.286-2.329s-7.41-4.019-10.328-7.058l-124.583-124.587c-5.951-6.022-9.292-14.147-9.292-22.613s3.341-16.592 9.292-22.613c6.53-5.645 14.833-8.816 23.464-8.959z" />
<glyph unicode="&#xe90c;" glyph-name="Vector" horiz-adv-x="942" d="M920.179 377.25l-81.060 291.637c-23.757 85.438-75.391 160.482-146.698 213.204-71.303 52.722-158.188 80.097-246.833 77.773-88.651-2.324-173.979-34.214-242.423-90.6s-116.077-134.033-135.326-220.598l-62.756-282.209c-6.932-31.183-6.772-63.525 0.469-94.638 7.241-31.109 21.377-60.199 41.364-85.119 19.988-24.916 45.317-45.027 74.118-58.847s60.337-20.992 92.281-20.992h47.525c9.791-48.218 35.952-91.57 74.050-122.712 38.097-31.138 85.789-48.148 134.995-48.148 49.201 0 96.895 17.011 134.992 48.148 38.097 31.142 64.258 74.494 74.047 122.712h35.754c32.883 0 65.323 7.598 94.781 22.209 29.463 14.61 55.144 35.832 75.047 62.013 19.898 26.178 33.477 56.603 39.674 88.9 6.193 32.293 4.796 65.585-4.002 97.268zM469.885 21.537c-26.378 0.111-52.077 8.364-73.581 23.638s-37.765 36.819-46.557 61.686h240.269c-8.79-24.867-25.051-46.412-46.555-61.686s-47.202-23.527-73.576-23.638zM816.554 242.737c-11.891-15.77-27.292-28.549-44.982-37.327-17.695-8.774-37.188-13.304-56.938-13.226h-501.318c-19.164 0.004-38.083 4.309-55.361 12.603s-32.471 20.361-44.461 35.312c-11.99 14.95-20.469 32.399-24.812 51.069-4.343 18.665-4.439 38.068-0.28 56.775l62.713 282.25c15.117 67.994 52.53 128.983 106.29 173.273s120.782 69.337 190.412 71.161c69.632 1.824 137.875-19.68 193.88-61.094s96.559-100.361 115.216-167.47l81.056-291.636c5.358-19.001 6.21-38.986 2.49-58.376-3.715-19.386-11.903-37.642-23.904-53.314z" />
<glyph unicode="&#xe90d;" glyph-name="wallet" d="M713.762 455.936c0-8.487 3.374-16.626 9.375-22.628s14.137-9.372 22.625-9.372h12.8c8.488 0 16.629 3.371 22.63 9.372s9.37 14.14 9.37 22.628c0 8.487-3.368 16.626-9.37 22.627s-14.143 9.373-22.63 9.373h-12.8c-8.488 0-16.623-3.372-22.625-9.373s-9.375-14.14-9.375-22.627zM690.261 842.667h-356.523c-65.721 0.057-128.782-25.956-175.35-72.331s-72.841-109.329-73.055-175.050v-294.4c0.192-65.735 26.455-128.711 73.025-175.104s109.644-72.42 175.38-72.363h356.523c65.707-0.057 128.757 25.941 175.32 72.3s72.846 109.289 73.085 174.996v294.4c-0.171 65.75-26.425 128.747-72.994 175.16-46.575 46.413-109.659 72.449-175.411 72.392zM874.667 374.955h-134.912c-10.456-0.245-20.855 1.604-30.583 5.439-9.734 3.829-18.597 9.569-26.078 16.878s-13.426 16.038-17.482 25.677c-4.062 9.638-6.15 19.991-6.15 30.449s2.088 20.811 6.15 30.449c4.056 9.639 10.001 18.368 17.482 25.676s16.344 13.047 26.078 16.88c9.728 3.833 20.127 5.681 30.583 5.437h134.912v-156.885zM690.261 117.333h-356.523c-48.769-0.080-95.577 19.194-130.15 53.589-34.573 34.401-54.085 81.106-54.255 129.877v294.4c0.17 48.769 19.682 95.478 54.255 129.875s81.381 53.671 130.15 53.592h356.523c48.657 0.080 95.369-19.106 129.923-53.365s54.147-80.804 54.482-129.461h-134.952c-18.916 0.327-37.706-3.115-55.273-10.127s-33.564-17.451-47.058-30.711c-13.488-13.26-24.206-29.073-31.516-46.517-7.316-17.445-11.082-36.172-11.082-55.088s3.766-37.643 11.082-55.087c7.31-17.444 18.028-33.26 31.516-46.52 13.494-13.255 29.491-23.694 47.058-30.709 17.567-7.009 36.358-10.456 55.273-10.126h134.952v-10.24c-0.182-48.759-19.701-95.454-54.272-129.832-34.571-34.384-81.374-53.641-130.133-53.55zM527.066 656.383h-222.677c-8.487 0-16.626-3.371-22.628-9.372s-9.372-14.14-9.372-22.628c0-8.487 3.371-16.626 9.372-22.627s14.14-9.373 22.628-9.373h222.677c8.487 0 16.626 3.372 22.627 9.373s9.373 14.14 9.373 22.627c0 8.487-3.372 16.626-9.373 22.628s-14.14 9.372-22.627 9.372z" />
<glyph unicode="&#xe90e;" glyph-name="bars-sort-1" d="M0 810.667c0-35.414 28.587-64 64-64h896c35.414 0 64 28.586 64 64s-28.586 64-64 64h-896c-35.413 0-64-28.587-64-64zM746.668 106.668h213.332c35.414 0 64-28.586 64-64s-28.586-64-64-64h-213.332c-35.414 0-64 28.586-64 64s28.586 64 64 64zM405.333 490.668h554.667c35.414 0 64-28.586 64-64s-28.586-64-64-64h-554.667c-35.413 0-64 28.586-64 64s28.587 64 64 64z" />
<glyph unicode="&#xe90f;" glyph-name="arrow-right" d="M567.168 627.499c-16.683-16.683-16.683-43.648 0-60.331l97.835-97.835h-323.669c-23.552 0-42.667-19.115-42.667-42.667s19.115-42.667 42.667-42.667h323.669l-97.835-97.835c-16.683-16.683-16.683-43.648 0-60.331 8.32-8.32 19.243-12.501 30.165-12.501s21.845 4.181 30.165 12.501l200.832 200.832-200.832 200.832c-16.683 16.683-43.648 16.683-60.331 0z" />
<glyph unicode="&#xe910;" glyph-name="arrow-left" d="M725.333 469.334h-323.669l97.835 97.835c16.683 16.683 16.683 43.648 0 60.331s-43.648 16.683-60.331 0l-200.832-200.832 200.832-200.832c8.32-8.32 19.243-12.501 30.165-12.501s21.845 4.181 30.165 12.501c16.683 16.683 16.683 43.648 0 60.331l-97.835 97.835h323.669c23.552 0 42.667 19.115 42.667 42.667s-19.115 42.667-42.667 42.667z" />
<glyph unicode="&#xe911;" glyph-name="arrow-down" d="M712.832 371.499c-16.683 16.683-43.648 16.683-60.331 0l-97.835-97.835v323.669c0 23.552-19.072 42.667-42.667 42.667s-42.667-19.115-42.667-42.667v-323.669l-97.835 97.835c-16.683 16.683-43.648 16.683-60.331 0s-16.683-43.648 0-60.331l200.832-200.832 200.832 200.832c16.683 16.683 16.683 43.648 0 60.331z" />
<glyph unicode="&#xe912;" glyph-name="arrow-up" d="M554.667 700.331l-200.832-200.832c-16.683-16.683-16.683-43.648 0-60.331s43.648-16.683 60.331 0l97.835 97.835v-323.669c0-23.552 19.072-42.667 42.667-42.667s42.667 19.115 42.667 42.667v323.669l97.835-97.835c8.32-8.32 19.243-12.501 30.165-12.501s21.845 4.181 30.165 12.501c16.683 16.683 16.683 43.648 0 60.331l-200.832 200.832z" />
<glyph unicode="&#xe913;" glyph-name="check1" d="M384 248.667l452 452 60-60-512-512-238 238 60 60z" />
<glyph unicode="&#xe914;" glyph-name="arrow_right" d="M426 212.667v428l214-214z" />
<glyph unicode="&#xe915;" glyph-name="arrow_left" d="M598 640.667v-428l-214 214z" />
<glyph unicode="&#xe916;" glyph-name="arrow_drop_up" d="M298 340.667l214 214 214-214h-428z" />
<glyph unicode="&#xe917;" glyph-name="arrow_drop_down" d="M298 512.667h428l-214-214z" />
<glyph unicode="&#xe918;" glyph-name="keyboard_arrow_up" d="M316 280.667l-60 60 256 256 256-256-60-60-196 196z" />
<glyph unicode="&#xe919;" glyph-name="keyboard_arrow_right" d="M366 230.667l196 196-196 196 60 60 256-256-256-256z" />
<glyph unicode="&#xe91a;" glyph-name="keyboard_arrow_left" d="M658 230.667l-60-60-256 256 256 256 60-60-196-196z" />
<glyph unicode="&#xe91b;" glyph-name="keyboard_arrow_down" d="M316 572.667l196-196 196 196 60-60-256-256-256 256z" />
<glyph unicode="&#xe91c;" glyph-name="check-circle" d="M896 465.92v-39.253c-0.043-106.027-43.051-201.941-112.64-271.445s-165.547-112.384-271.573-112.299-201.984 43.051-271.445 112.64-112.384 165.504-112.341 271.573 43.051 201.941 112.64 271.445 165.547 112.384 271.573 112.341c56.747-0.043 110.336-12.331 155.691-33.067 21.419-9.813 46.763-0.341 56.533 21.077s0.341 46.763-21.077 56.533c-56.619 25.856-122.283 40.747-191.104 40.789-129.579 0.085-246.997-52.437-331.947-137.259s-137.557-202.24-137.643-331.819 52.437-246.997 137.259-331.947 202.197-137.6 331.776-137.643 246.997 52.437 331.947 137.259 137.6 202.197 137.685 331.819v39.253c0 23.552-19.115 42.667-42.667 42.667s-42.667-19.115-42.667-42.667zM908.501 798.166l-396.501-396.885-97.835 97.792c-16.683 16.683-43.691 16.683-60.331 0s-16.683-43.691 0-60.331l128-128c16.683-16.683 43.691-16.64 60.373 0l426.667 427.093c16.64 16.683 16.64 43.691-0.043 60.331s-43.691 16.64-60.331-0.043z" />
<glyph unicode="&#xe91d;" glyph-name="user-check" d="M725.333 42.667v85.333c0 58.88-23.936 112.299-62.464 150.869s-91.989 62.464-150.869 62.464h-298.667c-58.88 0-112.299-23.936-150.869-62.464s-62.464-91.989-62.464-150.869v-85.333c0-23.552 19.115-42.667 42.667-42.667s42.667 19.115 42.667 42.667v85.333c0 35.371 14.293 67.285 37.504 90.496s55.125 37.504 90.496 37.504h298.667c35.371 0 67.285-14.293 90.496-37.504s37.504-55.125 37.504-90.496v-85.333c0-23.552 19.115-42.667 42.667-42.667s42.667 19.115 42.667 42.667zM576 640c0 58.88-23.936 112.299-62.464 150.869s-91.989 62.464-150.869 62.464-112.299-23.936-150.869-62.464-62.464-91.989-62.464-150.869 23.936-112.299 62.464-150.869 91.989-62.464 150.869-62.464 112.299 23.936 150.869 62.464 62.464 91.989 62.464 150.869zM490.667 640c0-35.371-14.293-67.285-37.504-90.496s-55.125-37.504-90.496-37.504-67.285 14.293-90.496 37.504-37.504 55.125-37.504 90.496 14.293 67.285 37.504 90.496 55.125 37.504 90.496 37.504 67.285-14.293 90.496-37.504 37.504-55.125 37.504-90.496zM695.168 439.168l85.333-85.333c16.683-16.683 43.691-16.683 60.331 0l170.667 170.667c16.683 16.683 16.683 43.691 0 60.331s-43.691 16.683-60.331 0l-140.501-140.501-55.168 55.168c-16.683 16.683-43.691 16.683-60.331 0s-16.683-43.691 0-60.331z" />
<glyph unicode="&#xe91e;" glyph-name="check-square" d="M353.835 439.168l128-128c16.683-16.683 43.691-16.683 60.331 0l426.667 426.667c16.683 16.683 16.683 43.691 0 60.331s-43.691 16.683-60.331 0l-396.501-396.501-97.835 97.835c-16.683 16.683-43.691 16.683-60.331 0s-16.683-43.691 0-60.331zM853.333 426.667v-298.667c0-11.776-4.736-22.4-12.501-30.165s-18.389-12.501-30.165-12.501h-597.333c-11.776 0-22.4 4.736-30.165 12.501s-12.501 18.389-12.501 30.165v597.333c0 11.776 4.736 22.4 12.501 30.165s18.389 12.501 30.165 12.501h469.333c23.552 0 42.667 19.115 42.667 42.667s-19.115 42.667-42.667 42.667h-469.333c-35.328 0-67.413-14.379-90.496-37.504s-37.504-55.168-37.504-90.496v-597.333c0-35.328 14.379-67.413 37.504-90.496s55.168-37.504 90.496-37.504h597.333c35.328 0 67.413 14.379 90.496 37.504s37.504 55.168 37.504 90.496v298.667c0 23.552-19.115 42.667-42.667 42.667s-42.667-19.115-42.667-42.667z" />
<glyph unicode="&#xe91f;" glyph-name="check11" d="M823.168 712.832l-439.168-439.168-183.168 183.168c-16.683 16.683-43.691 16.683-60.331 0s-16.683-43.691 0-60.331l213.333-213.333c16.683-16.683 43.691-16.683 60.331 0l469.333 469.333c16.683 16.683 16.683 43.691 0 60.331s-43.691 16.683-60.331 0z" />
<glyph unicode="&#xe920;" glyph-name="arrow-down-left" d="M725.333 256h-323.669l353.835 353.835c16.683 16.683 16.683 43.691 0 60.331s-43.691 16.683-60.331 0l-353.835-353.835v323.669c0 23.552-19.115 42.667-42.667 42.667s-42.667-19.115-42.667-42.667v-426.667c0-23.552 19.115-42.667 42.667-42.667h426.667c23.552 0 42.667 19.115 42.667 42.667s-19.115 42.667-42.667 42.667z" />
<glyph unicode="&#xe921;" glyph-name="arrow-down-right" d="M682.667 640v-323.669l-353.835 353.835c-16.683 16.683-43.691 16.683-60.331 0s-16.683-43.691 0-60.331l353.835-353.835h-323.669c-23.552 0-42.667-19.115-42.667-42.667s19.115-42.667 42.667-42.667h426.667c5.803 0 11.307 1.152 16.341 3.243s9.728 5.163 13.824 9.259c3.925 3.925 7.083 8.619 9.259 13.824 2.091 5.035 3.243 10.539 3.243 16.341v426.667c0 23.552-19.115 42.667-42.667 42.667s-42.667-19.115-42.667-42.667z" />
<glyph unicode="&#xe922;" glyph-name="arrow-up-left" d="M341.333 213.334v323.669l353.835-353.835c16.683-16.683 43.691-16.683 60.331 0s16.683 43.691 0 60.331l-353.835 353.835h323.669c23.552 0 42.667 19.115 42.667 42.667s-19.115 42.667-42.667 42.667h-426.667c-23.552 0-42.667-19.115-42.667-42.667v-426.667c0-23.552 19.115-42.667 42.667-42.667s42.667 19.115 42.667 42.667z" />
<glyph unicode="&#xe923;" glyph-name="arrow-right-circle" d="M981.333 426.667c0 129.579-52.565 246.997-137.472 331.861s-202.283 137.472-331.861 137.472-246.997-52.565-331.861-137.472-137.472-202.283-137.472-331.861 52.565-246.997 137.472-331.861 202.283-137.472 331.861-137.472 246.997 52.565 331.861 137.472 137.472 202.283 137.472 331.861zM896 426.667c0-106.069-42.923-201.984-112.469-271.531s-165.461-112.469-271.531-112.469-201.984 42.923-271.531 112.469-112.469 165.461-112.469 271.531 42.923 201.984 112.469 271.531 165.461 112.469 271.531 112.469 201.984-42.923 271.531-112.469 112.469-165.461 112.469-271.531zM341.333 384h238.336l-97.835-97.835c-16.683-16.683-16.683-43.691 0-60.331s43.691-16.683 60.331 0l170.667 170.667c3.925 3.925 7.083 8.619 9.259 13.824 4.309 10.453 4.309 22.229 0 32.683-2.091 5.035-5.163 9.728-9.259 13.824l-170.667 170.667c-16.683 16.683-43.691 16.683-60.331 0s-16.683-43.691 0-60.331l97.835-97.835h-238.336c-23.552 0-42.667-19.115-42.667-42.667s19.115-42.667 42.667-42.667z" />
<glyph unicode="&#xe924;" glyph-name="arrow-left-circle" d="M981.333 426.667c0 129.579-52.565 246.997-137.472 331.861s-202.283 137.472-331.861 137.472-246.997-52.565-331.861-137.472-137.472-202.283-137.472-331.861 52.565-246.997 137.472-331.861 202.283-137.472 331.861-137.472 246.997 52.565 331.861 137.472 137.472 202.283 137.472 331.861zM896 426.667c0-106.069-42.923-201.984-112.469-271.531s-165.461-112.469-271.531-112.469-201.984 42.923-271.531 112.469-112.469 165.461-112.469 271.531 42.923 201.984 112.469 271.531 165.461 112.469 271.531 112.469 201.984-42.923 271.531-112.469 112.469-165.461 112.469-271.531zM682.667 469.334h-238.336l97.835 97.835c16.683 16.683 16.683 43.691 0 60.331s-43.691 16.683-60.331 0l-170.667-170.667c-4.096-4.096-7.168-8.789-9.259-13.824-2.176-5.205-3.243-10.795-3.243-16.341 0-10.923 4.181-21.845 12.501-30.165l170.667-170.667c16.683-16.683 43.691-16.683 60.331 0s16.683 43.691 0 60.331l-97.835 97.835h238.336c23.552 0 42.667 19.115 42.667 42.667s-19.115 42.667-42.667 42.667z" />
<glyph unicode="&#xe925;" glyph-name="arrow-down-circle" d="M981.333 426.667c0 129.579-52.565 246.997-137.472 331.861s-202.283 137.472-331.861 137.472-246.997-52.565-331.861-137.472-137.472-202.283-137.472-331.861 52.565-246.997 137.472-331.861 202.283-137.472 331.861-137.472 246.997 52.565 331.861 137.472 137.472 202.283 137.472 331.861zM896 426.667c0-106.069-42.923-201.984-112.469-271.531s-165.461-112.469-271.531-112.469-201.984 42.923-271.531 112.469-112.469 165.461-112.469 271.531 42.923 201.984 112.469 271.531 165.461 112.469 271.531 112.469 201.984-42.923 271.531-112.469 112.469-165.461 112.469-271.531zM469.333 597.334v-238.336l-97.835 97.835c-16.683 16.683-43.691 16.683-60.331 0s-16.683-43.691 0-60.331l170.667-170.667c3.925-3.925 8.619-7.083 13.824-9.259 10.453-4.309 22.229-4.309 32.683 0 5.035 2.091 9.728 5.163 13.824 9.259l170.667 170.667c16.683 16.683 16.683 43.691 0 60.331s-43.691 16.683-60.331 0l-97.835-97.835v238.336c0 23.552-19.115 42.667-42.667 42.667s-42.667-19.115-42.667-42.667z" />
<glyph unicode="&#xe926;" glyph-name="arrow-up-circle" d="M981.333 426.667c0 129.579-52.565 246.997-137.472 331.861s-202.283 137.472-331.861 137.472-246.997-52.565-331.861-137.472-137.472-202.283-137.472-331.861 52.565-246.997 137.472-331.861 202.283-137.472 331.861-137.472 246.997 52.565 331.861 137.472 137.472 202.283 137.472 331.861zM896 426.667c0-106.069-42.923-201.984-112.469-271.531s-165.461-112.469-271.531-112.469-201.984 42.923-271.531 112.469-112.469 165.461-112.469 271.531 42.923 201.984 112.469 271.531 165.461 112.469 271.531 112.469 201.984-42.923 271.531-112.469 112.469-165.461 112.469-271.531zM554.667 256v238.336l97.835-97.835c16.683-16.683 43.691-16.683 60.331 0s16.683 43.691 0 60.331l-170.667 170.667c-4.096 4.096-8.789 7.168-13.824 9.259-5.205 2.176-10.795 3.243-16.341 3.243-10.923 0-21.845-4.181-30.165-12.501l-170.667-170.667c-16.683-16.683-16.683-43.691 0-60.331s43.691-16.683 60.331 0l97.835 97.835v-238.336c0-23.552 19.115-42.667 42.667-42.667s42.667 19.115 42.667 42.667z" />
<glyph unicode="&#xe927;" glyph-name="arrow-up-right" d="M298.667 597.334h323.669l-353.835-353.835c-16.683-16.683-16.683-43.691 0-60.331s43.691-16.683 60.331 0l353.835 353.835v-323.669c0-23.552 19.115-42.667 42.667-42.667s42.667 19.115 42.667 42.667v426.667c0 5.803-1.152 11.307-3.243 16.341s-5.163 9.728-9.216 13.781c-0.043 0.043-0.043 0.043-0.085 0.085-3.925 3.925-8.619 7.083-13.781 9.216-5.035 2.091-10.539 3.243-16.341 3.243h-426.667c-23.552 0-42.667-19.115-42.667-42.667s19.115-42.667 42.667-42.667z" />
<glyph unicode="&#xe928;" glyph-name="arrow-right1" d="M481.835 695.168l225.835-225.835h-494.336c-23.552 0-42.667-19.115-42.667-42.667s19.115-42.667 42.667-42.667h494.336l-225.835-225.835c-16.683-16.683-16.683-43.691 0-60.331s43.691-16.683 60.331 0l298.667 298.667c3.925 3.925 7.083 8.619 9.259 13.824 4.309 10.453 4.309 22.229 0 32.683-2.091 5.035-5.163 9.728-9.259 13.824l-298.667 298.667c-16.683 16.683-43.691 16.683-60.331 0s-16.683-43.691 0-60.331z" />
<glyph unicode="&#xe929;" glyph-name="arrow-left1" d="M542.165 158.166l-225.835 225.835h494.336c23.552 0 42.667 19.115 42.667 42.667s-19.115 42.667-42.667 42.667h-494.336l225.835 225.835c16.683 16.683 16.683 43.691 0 60.331s-43.691 16.683-60.331 0l-298.667-298.667c-4.096-4.096-7.168-8.789-9.259-13.824-2.176-5.205-3.243-10.795-3.243-16.341 0-10.923 4.181-21.845 12.501-30.165l298.667-298.667c16.683-16.683 43.691-16.683 60.331 0s16.683 43.691 0 60.331z" />
<glyph unicode="&#xe92a;" glyph-name="arrow-down1" d="M780.501 456.832l-225.835-225.835v494.336c0 23.552-19.115 42.667-42.667 42.667s-42.667-19.115-42.667-42.667v-494.336l-225.835 225.835c-16.683 16.683-43.691 16.683-60.331 0s-16.683-43.691 0-60.331l298.667-298.667c3.925-3.925 8.619-7.083 13.824-9.259 10.453-4.309 22.229-4.309 32.683 0 5.035 2.091 9.728 5.163 13.824 9.259l298.667 298.667c16.683 16.683 16.683 43.691 0 60.331s-43.691 16.683-60.331 0z" />
<glyph unicode="&#xe92b;" glyph-name="arrow-up1" d="M243.499 396.502l225.835 225.835v-494.336c0-23.552 19.115-42.667 42.667-42.667s42.667 19.115 42.667 42.667v494.336l225.835-225.835c16.683-16.683 43.691-16.683 60.331 0s16.683 43.691 0 60.331l-298.667 298.667c-3.925 3.925-8.619 7.083-13.824 9.259s-10.795 3.243-16.341 3.243c-10.923 0-21.845-4.181-30.165-12.501l-298.667-298.667c-16.683-16.683-16.683-43.691 0-60.331s43.691-16.683 60.331 0z" />
<glyph unicode="&#xe92c;" glyph-name="close-outline" d="M150.016 98.816c-96.436 93.233-156.308 223.762-156.308 368.276 0 282.77 229.23 512 512 512 144.514 0 275.043-59.872 368.137-156.164l0.138-0.144c88.925-91.979 143.724-217.436 143.724-355.692 0-282.77-229.23-512-512-512-138.256 0-263.713 54.799-355.836 143.863l0.144-0.138zM222.208 171.008c74.164-74.164 176.621-120.036 289.792-120.036 226.342 0 409.828 183.486 409.828 409.828 0 113.171-45.872 215.628-120.036 289.792v0c-74.164 74.164-176.621 120.036-289.792 120.036-226.342 0-409.828-183.486-409.828-409.828 0-113.171 45.872-215.628 120.036-289.792v0zM729.088 605.696l-144.896-144.896 144.896-144.896-72.192-72.192-144.896 144.896-144.896-144.896-72.192 72.192 144.896 144.896-144.896 144.896 72.192 72.192 144.896-144.896 144.896 144.896 72.192-72.192z" />
<glyph unicode="&#xe92d;" glyph-name="close" d="M512 533.197l-362.035 362.035-72.397-72.397 362.035-362.035-362.035-362.035 72.397-72.397 362.035 362.035 362.035-362.035 72.397 72.397-362.035 362.035 362.035 362.035-72.397 72.397-362.035-362.035z" />
<glyph unicode="&#xe92e;" glyph-name="cross" d="M512 910.222c-251.362 0-455.111-203.749-455.111-455.111s203.749-455.111 455.111-455.111 455.111 203.749 455.111 455.111-203.749 455.111-455.111 455.111zM512 113.778c-188.222 0-341.333 153.111-341.333 341.333s153.111 341.333 341.333 341.333 341.333-153.111 341.333-341.333-153.111-341.333-341.333-341.333zM666.834 609.166l-0.779 0.779c-21.111 21.111-55.333 21.111-76.444 0l-77.611-77.611-77.611 77.611c-21.111 21.111-55.333 21.111-76.444 0l-0.779-0.779c-21.111-21.111-21.111-55.333 0-76.444l77.611-77.611-77.611-77.611c-21.111-21.111-21.111-55.333 0-76.444l0.779-0.779c21.111-21.111 55.333-21.111 76.444 0l77.611 77.611 77.611-77.611c21.111-21.111 55.333-21.111 76.444 0l0.779 0.779c21.111 21.111 21.111 55.333 0 76.444l-77.611 77.611 77.611 77.611c21.111 21.111 21.111 55.333 0 76.444z" />
<glyph unicode="&#xe92f;" glyph-name="cross1" d="M734.618 212.531c-24.013-24.013-62.925-24.013-86.886 0l-135.731 155.136-135.731-155.085c-24.013-24.013-62.925-24.013-86.886 0-24.013 24.013-24.013 62.925 0 86.886l141.21 161.28-141.261 161.382c-24.013 24.013-24.013 62.874 0 86.886s62.874 24.013 86.886 0l135.782-155.187 135.731 155.187c24.013 24.013 62.874 24.013 86.886 0s24.013-62.925 0-86.886l-141.21-161.382 141.21-161.28c24.013-24.013 24.013-62.925 0-86.938z" />
<glyph unicode="&#xe930;" glyph-name="clear" d="M810 664.667l-238-238 238-238-60-60-238 238-238-238-60 60 238 238-238 238 60 60 238-238 238 238z" />
<glyph unicode="&#xe931;" glyph-name="cancel" d="M626.784 447.968l195.072-195.072c12.672-12.672 12.672-33.248 0-45.92l-68.832-68.832c-12.672-12.672-33.216-12.672-45.92 0l-195.104 195.072-195.104-195.072c-12.672-12.672-33.216-12.672-45.888 0l-68.864 68.832c-12.672 12.672-12.672 33.216 0 45.92l195.104 195.072-195.104 195.104c-12.672 12.672-12.672 33.248 0 45.92l68.896 68.832c12.672 12.672 33.216 12.672 45.888 0l195.072-195.104 195.104 195.104c12.672 12.672 33.216 12.672 45.92 0l68.832-68.864c12.672-12.672 12.672-33.216 0-45.92l-195.072-195.072z" />
<glyph unicode="&#xe932;" glyph-name="share-2" d="M691.797 166.486c1.067 1.408 2.048 2.859 2.987 4.437 0.853 1.493 1.621 3.029 2.304 4.565 3.115 4.608 6.656 8.917 10.581 12.843 15.488 15.488 36.736 25.003 60.331 25.003s44.843-9.515 60.331-25.003 25.003-36.736 25.003-60.331-9.515-44.843-25.003-60.331-36.736-25.003-60.331-25.003-44.843 9.515-60.331 25.003-25.003 36.736-25.003 60.331c0 13.867 3.285 26.923 9.131 38.485zM695.509 680.278c-0.384 0.725-0.768 1.451-1.195 2.176s-0.853 1.451-1.323 2.133c-6.571 12.075-10.325 25.941-10.325 40.747 0 23.595 9.515 44.843 25.003 60.331s36.736 25.003 60.331 25.003 44.843-9.515 60.331-25.003 25.003-36.736 25.003-60.331-9.515-44.843-25.003-60.331-36.736-25.003-60.331-25.003-44.843 9.515-60.331 25.003c-4.608 4.608-8.704 9.728-12.16 15.275zM328.491 471.723c0.384-0.725 0.768-1.451 1.195-2.176s0.853-1.451 1.323-2.133c6.571-12.075 10.325-25.941 10.325-40.747s-3.755-28.672-10.368-40.789c-0.469-0.683-0.896-1.408-1.323-2.133s-0.811-1.408-1.152-2.133c-3.456-5.547-7.552-10.667-12.16-15.275-15.488-15.488-36.736-25.003-60.331-25.003s-44.843 9.515-60.331 25.003-25.003 36.736-25.003 60.331 9.515 44.843 25.003 60.331 36.736 25.003 60.331 25.003 44.843-9.515 60.331-25.003c4.608-4.608 8.704-9.728 12.16-15.275zM603.733 678.912l-226.475-132.139c-0.171 0.213-0.384 0.384-0.597 0.597-30.805 30.805-73.557 49.963-120.661 49.963s-89.856-19.157-120.661-50.005-50.005-73.557-50.005-120.661 19.157-89.856 50.005-120.661 73.557-50.005 120.661-50.005 89.856 19.157 120.661 50.005c0.213 0.213 0.384 0.384 0.597 0.597l226.517-132.011c-4.181-14.805-6.443-30.464-6.443-46.592 0-47.104 19.157-89.856 50.005-120.661s73.557-50.005 120.661-50.005 89.856 19.157 120.661 50.005 50.005 73.557 50.005 120.661-19.157 89.856-50.005 120.661-73.557 50.005-120.661 50.005-89.856-19.157-120.661-50.005c-0.128-0.128-0.299-0.299-0.427-0.427l-226.645 132.053c4.181 14.763 6.4 30.293 6.4 46.379s-2.219 31.659-6.4 46.421l226.475 132.181c0.171-0.213 0.384-0.384 0.597-0.597 30.805-30.848 73.557-50.005 120.661-50.005s89.856 19.157 120.661 50.005 50.005 73.557 50.005 120.661-19.157 89.856-50.005 120.661-73.557 50.005-120.661 50.005-89.856-19.157-120.661-50.005-50.005-73.557-50.005-120.661c0-16.085 2.219-31.659 6.4-46.421z" />
<glyph unicode="&#xe933;" glyph-name="search" d="M684.416 262.144c-1.451-1.109-2.859-2.347-4.224-3.712s-2.56-2.731-3.712-4.224c-53.675-51.755-126.677-83.541-207.147-83.541-82.475 0-157.099 33.365-211.2 87.467s-87.467 128.725-87.467 211.2 33.365 157.099 87.467 211.2 128.725 87.467 211.2 87.467 157.099-33.365 211.2-87.467 87.467-128.725 87.467-211.2c0-80.469-31.787-153.472-83.584-207.189zM926.165 72.832l-156.8 156.8c52.523 65.707 83.968 149.035 83.968 239.701 0 106.027-43.008 202.069-112.469 271.531s-165.504 112.469-271.531 112.469-202.069-43.008-271.531-112.469-112.469-165.504-112.469-271.531 43.008-202.069 112.469-271.531 165.504-112.469 271.531-112.469c90.667 0 173.995 31.445 239.701 83.968l156.8-156.8c16.683-16.683 43.691-16.683 60.331 0s16.683 43.691 0 60.331z" />
<glyph unicode="&#xe934;" glyph-name="search1" d="M406 340.667q80 0 136 56t56 136-56 136-136 56-136-56-56-136 56-136 136-56zM662 340.667l212-212-64-64-212 212v34l-12 12q-76-66-180-66-116 0-197 80t-81 196 81 197 197 81 196-81 80-197q0-42-20-95t-46-85l12-12h34z" />
<glyph unicode="&#xe935;" glyph-name="search2" d="M995.828-35.826c-37.566-37.564-98.45-37.564-136.016 0l-169.726 169.726c-69.776-44.764-152.26-71.434-241.318-71.434-247.83 0-448.768 200.908-448.768 448.768s200.938 448.766 448.768 448.766c247.862 0 448.768-200.904 448.768-448.766 0-89.028-26.704-171.542-71.436-241.352l169.728-169.726c37.562-37.564 37.562-98.418 0-135.982zM448.768 831.782c-177.022 0-320.548-143.494-320.548-320.546s143.526-320.548 320.548-320.548c177.052 0 320.548 143.496 320.548 320.548s-143.496 320.546-320.548 320.546z" />
<glyph unicode="&#xe936;" glyph-name="setting1" d="M903.037 340.48c-7.458 28.103-25.765 52.103-50.898 66.731-5.393 3.132-10.109 7.298-13.887 12.258s-6.537 10.617-8.124 16.646c-1.587 6.029-1.963 12.312-1.115 18.489s2.907 12.124 6.059 17.503c4.062 7.113 9.956 13.007 17.067 17.067 24.326 14.422 42.206 37.612 49.966 64.804s4.813 56.326-8.238 81.414c-0.495 1.256-1.098 2.47-1.792 3.627l-25.6 44.459c-7.128 12.512-16.663 23.489-28.052 32.298-11.395 8.809-24.417 15.274-38.32 19.022s-28.41 4.706-42.689 2.819c-14.273-1.888-28.035-6.584-40.488-13.818-5.302-3.143-11.184-5.196-17.294-6.039s-12.328-0.459-18.29 1.131c-5.956 1.589-11.543 4.351-16.418 8.124-4.881 3.773-8.96 8.482-11.998 13.85-3.783 6.349-5.882 13.561-6.098 20.949 0.353 14.658-2.196 29.241-7.498 42.912-5.296 13.67-13.249 26.158-23.393 36.746-10.2 10.511-22.403 18.873-35.886 24.596s-27.975 8.69-42.622 8.726h-51.2c-14.349-0.045-28.549-2.916-41.789-8.448s-25.261-13.619-35.376-23.798c-10.115-10.178-18.126-22.249-23.576-35.523s-8.231-27.492-8.187-41.842c-0.154-12.336-5.111-24.127-13.819-32.866s-20.48-13.74-32.816-13.939c-7.843 0.108-15.515 2.302-22.229 6.357-12.4 7.155-26.087 11.798-40.281 13.664s-28.616 0.916-42.444-2.792c-13.827-3.708-26.788-10.103-38.144-18.821s-20.883-19.587-28.038-31.986l-27.691-45.781c-14.355-25.209-18.222-55.050-10.766-83.085s25.636-52.013 50.617-66.76c7.188-4.205 13.149-10.218 17.292-17.441s6.323-15.406 6.323-23.732c0-8.327-2.179-16.509-6.323-23.732s-10.104-13.236-17.292-17.441c-24.979-14.673-43.165-38.603-50.61-66.603-7.444-27.995-3.548-57.799 10.845-82.944l25.6-44.288c6.954-12.703 16.368-23.888 27.691-32.916 11.324-9.023 24.331-15.701 38.264-19.644 13.933-3.948 28.512-5.074 42.885-3.328 14.374 1.752 28.256 6.349 40.834 13.522 5.244 3.14 11.074 5.183 17.134 5.996s12.221 0.387 18.109-1.263c5.984-1.65 11.58-4.477 16.465-8.306s8.961-8.59 11.993-14.006c3.898-6.599 6.015-14.097 6.144-21.76-0.045-29.082 11.448-56.991 31.958-77.602 20.51-20.617 48.36-32.25 77.439-32.353h51.2c29.029 0.159 56.818 11.782 77.315 32.336 20.503 20.554 32.046 48.373 32.125 77.403-0.034 6.218 1.161 12.379 3.51 18.13 2.35 5.757 5.808 10.991 10.183 15.406 8.556 8.658 20.178 13.591 32.341 13.739 7.947-0.176 15.724-2.35 22.613-6.315 12.39-7.179 26.066-11.85 40.255-13.744 14.194-1.894 28.621-0.978 42.456 2.702s26.806 10.052 38.184 18.751c11.372 8.693 20.918 19.541 28.097 31.932l27.136 45.568c14.524 25.196 18.54 55.103 11.179 83.24zM838.4 288.899l-27.221-45.614c-6.241-10.729-16.481-18.551-28.479-21.749-11.992-3.197-24.764-1.513-35.521 4.682-16.094 9.29-34.287 14.342-52.867 14.677h-0.978c-14.364-0.023-28.587-2.879-41.847-8.414-13.255-5.535-25.293-13.631-35.413-23.825-10.121-10.2-18.13-22.295-23.563-35.59-5.433-13.301-8.186-27.546-8.107-41.91-0.028-12.47-4.978-24.422-13.761-33.269-8.784-8.852-20.701-13.881-33.17-14.006h-51.2c-12.557 0.125-24.552 5.228-33.351 14.188-8.8 8.954-13.684 21.043-13.582 33.599-0.268 18.551-5.371 36.716-14.805 52.696-9.423 16.697-23.119 30.583-39.682 40.243-16.563 9.654-35.396 14.734-54.569 14.711-19.114 0.046-37.9-4.972-54.443-14.552-5.379-3.026-11.303-4.955-17.431-5.689s-12.34-0.25-18.281 1.422c-6.060 1.792-11.708 4.762-16.621 8.732-4.912 3.977-8.993 8.88-12.009 14.438l-25.6 44.8c-6.204 10.815-7.892 23.643-4.697 35.698s11.016 22.363 21.764 28.683c16.616 9.711 30.398 23.603 39.976 40.299 9.578 16.692 14.618 35.603 14.618 54.848s-5.040 38.155-14.618 54.848c-9.578 16.693-23.361 30.586-39.976 40.298-10.686 6.335-18.479 16.588-21.722 28.58s-1.68 24.776 4.357 35.633l27.648 45.824c3.069 5.39 7.175 10.118 12.081 13.912s10.516 6.577 16.505 8.189c5.846 1.634 11.957 2.099 17.983 1.366s11.848-2.646 17.132-5.633c16.156-9.615 34.576-14.768 53.376-14.933 28.861 0.221 56.483 11.756 76.931 32.123s32.090 47.945 32.424 76.805c-0.056 6.178 1.108 12.306 3.425 18.033s5.743 10.94 10.080 15.34c4.337 4.4 9.499 7.901 15.192 10.301s11.803 3.653 17.981 3.686h51.2c6.3-0.002 12.535-1.273 18.333-3.736s11.041-6.068 15.417-10.6c4.506-4.755 8.010-10.366 10.303-16.501s3.334-12.668 3.049-19.211c0.176-18.742 5.279-37.107 14.808-53.248 14.655-25.021 38.61-43.228 66.645-50.645 13.824-3.61 28.228-4.454 42.382-2.485s27.779 6.715 40.090 13.962c5.319 3.082 11.196 5.076 17.289 5.867s12.288 0.363 18.21-1.259c5.99-1.612 11.6-4.396 16.509-8.189 4.904-3.794 9.011-8.522 12.078-13.912l23.893-41.771c0.472-0.981 0.899-2.005 1.451-2.987 6.121-10.85 7.765-23.662 4.574-35.704-3.186-12.042-10.951-22.364-21.641-28.765-16.583-9.555-30.316-23.373-39.765-40.021-14.581-25.186-18.58-55.129-11.122-83.26 7.464-28.132 25.782-52.156 50.933-66.8 10.701-6.32 18.489-16.6 21.68-28.609 3.197-12.015 1.536-24.804-4.614-35.601h0.341zM511.997 591.19c-28.336 0.076-56.058-8.257-79.656-23.945s-42.010-38.024-52.907-64.181c-10.897-26.158-13.787-54.96-8.306-82.761s19.088-53.352 39.099-73.417c20.010-20.065 45.523-33.735 73.31-39.293s56.596-2.742 82.784 8.084c26.189 10.826 48.575 29.178 64.321 52.736 15.753 23.553 24.161 51.252 24.161 79.589 0.034 37.92-14.99 74.303-41.768 101.152s-63.118 41.97-101.038 42.037zM511.997 368.856c-15.68-0.080-31.030 4.506-44.104 13.158-13.074 8.658-23.283 21.002-29.335 35.467s-7.672 30.402-4.656 45.79c3.016 15.388 10.531 29.534 21.595 40.645s25.177 18.689 40.552 21.77c15.374 3.082 31.318 1.53 45.809-4.458s26.879-16.145 35.593-29.182c8.715-13.036 13.358-28.366 13.352-44.046 0.023-10.371-1.997-20.646-5.945-30.236s-9.751-18.309-17.066-25.659c-7.318-7.35-16.011-13.187-25.585-17.175s-19.839-6.053-30.21-6.076z" />
<glyph unicode="&#xe937;" glyph-name="ph--bag-1" d="M864 704h-160c0 50.921-20.227 99.757-56.236 135.765-36.006 36.007-84.841 56.235-135.764 56.235s-99.759-20.229-135.764-56.235c-36.009-36.007-56.236-84.843-56.236-135.765h-160c-16.974 0-33.253-6.743-45.255-18.745s-18.745-28.28-18.745-45.255v-480c0-16.974 6.743-33.253 18.745-45.255s28.281-18.745 45.255-18.745h704c16.974 0 33.253 6.743 45.255 18.745s18.745 28.28 18.745 45.255v480c0 16.974-6.743 33.253-18.745 45.255s-28.28 18.745-45.255 18.745zM512 832c33.949 0 66.506-13.486 90.51-37.49s37.49-56.562 37.49-90.51h-256c0 33.948 13.487 66.505 37.49 90.51s56.561 37.49 90.51 37.49zM864 160h-704v480h160v-64c0-8.487 3.37-16.625 9.373-22.627s14.14-9.373 22.627-9.373c8.487 0 16.625 3.37 22.627 9.373s9.373 14.14 9.373 22.627v64h256v-64c0-8.487 3.37-16.625 9.373-22.627s14.14-9.373 22.627-9.373c8.487 0 16.625 3.37 22.627 9.373s9.373 14.14 9.373 22.627v64h160v-480z" />
<glyph unicode="&#xe938;" glyph-name="ph--chart-line-1" d="M928 128c0-8.487-3.37-16.625-9.373-22.627s-14.14-9.373-22.627-9.373h-768c-8.487 0-16.626 3.37-22.627 9.373s-9.373 14.14-9.373 22.627v640c0 8.487 3.371 16.626 9.373 22.627s14.141 9.373 22.627 9.373c8.487 0 16.626-3.371 22.627-9.373s9.373-14.141 9.373-22.627v-377.48l202.921 177.48c5.521 4.834 12.538 7.623 19.869 7.9 7.334 0.274 14.541-1.976 20.411-6.382l235.24-176.438 236.481 206.92c3.099 3.069 6.795 5.472 10.857 7.060 4.066 1.59 8.409 2.331 12.77 2.178 4.361-0.151 8.644-1.193 12.586-3.063 3.942-1.867 7.46-4.521 10.339-7.8 2.879-3.277 5.060-7.108 6.403-11.261 1.343-4.15 1.825-8.532 1.413-12.875s-1.708-8.556-3.807-12.381c-2.099-3.822-4.957-7.177-8.403-9.858l-256-224c-5.521-4.834-12.538-7.623-19.869-7.9-7.334-0.274-14.541 1.976-20.411 6.382l-235.24 176.36-225.56-197.361v-145.48h736c8.487 0 16.625-3.37 22.627-9.373s9.373-14.14 9.373-22.627z" />
<glyph unicode="&#xe939;" glyph-name="ph--credit-card-1" d="M896 768h-768c-16.974 0-33.253-6.743-45.255-18.745s-18.745-28.281-18.745-45.255v-512c0-16.974 6.743-33.253 18.745-45.255s28.281-18.745 45.255-18.745h768c16.974 0 33.253 6.743 45.255 18.745s18.745 28.28 18.745 45.255v512c0 16.974-6.743 33.253-18.745 45.255s-28.28 18.745-45.255 18.745zM896 704v-96h-768v96h768zM896 192h-768v352h768v-352zM832 288c0-8.487-3.37-16.625-9.373-22.627s-14.14-9.373-22.627-9.373h-128c-8.487 0-16.625 3.37-22.627 9.373s-9.373 14.14-9.373 22.627c0 8.487 3.37 16.625 9.373 22.627s14.14 9.373 22.627 9.373h128c8.487 0 16.625-3.37 22.627-9.373s9.373-14.14 9.373-22.627zM576 288c0-8.487-3.37-16.625-9.373-22.627s-14.14-9.373-22.627-9.373h-64c-8.487 0-16.625 3.37-22.627 9.373s-9.373 14.14-9.373 22.627c0 8.487 3.37 16.625 9.373 22.627s14.14 9.373 22.627 9.373h64c8.487 0 16.625-3.37 22.627-9.373s9.373-14.14 9.373-22.627z" />
<glyph unicode="&#xe93a;" glyph-name="ph--hand-deposit-1" horiz-adv-x="1054" d="M527.059 818.761v-370.761c0-8.487-3.37-16.625-9.373-22.627-6.002-5.999-14.14-9.373-22.627-9.373s-16.625 3.373-22.627 9.373c-6.002 6.002-9.373 14.14-9.373 22.627v370.761l-73.361-73.4c-6.002-6.005-14.149-9.378-22.639-9.378s-16.637 3.373-22.639 9.378c-6.005 6.005-9.379 14.148-9.379 22.64s3.373 16.635 9.379 22.64l128 128c2.973 2.975 6.499 5.335 10.385 6.946s8.050 2.439 12.255 2.439c4.204 0 8.37-0.829 12.255-2.439s7.412-3.971 10.385-6.946l128-128c6.005-6.005 9.379-14.148 9.379-22.64s-3.373-16.635-9.379-22.64c-6.002-6.005-14.149-9.378-22.639-9.378s-16.637 3.373-22.639 9.378l-73.361 73.4zM783.059 465.519v110.481c0 16.974-6.743 33.253-18.745 45.255s-28.28 18.745-45.255 18.745h-64c-8.487 0-16.625-3.37-22.627-9.373-6.002-5.999-9.373-14.14-9.373-22.627s3.37-16.625 9.373-22.627c6.002-5.999 14.14-9.373 22.627-9.373h64v-321.599c-19.083 19.495-44.625 31.352-71.834 33.352-27.205 1.997-54.206-6.002-75.933-22.501s-36.686-40.358-42.068-67.102c-5.382-26.741-0.819-54.531 12.833-78.149l0.961-1.521 89.040-135.999c4.647-7.102 11.927-12.068 20.233-13.806 8.306-1.735 16.965-0.099 24.067 4.545 7.105 4.647 12.068 11.927 13.806 20.233 1.738 8.309 0.102 16.965-4.545 24.067l-88.522 135.162c-6.274 11.080-7.891 24.2-4.491 36.472 3.397 12.273 11.532 22.691 22.612 28.967 11.080 6.274 24.2 7.891 36.472 4.494 12.273-3.4 22.691-11.532 28.967-22.615 0.28-0.518 0.599-1.039 0.919-1.518l42.722-65.241c3.777-5.758 9.309-10.147 15.779-12.508 6.466-2.364 13.526-2.578 20.125-0.611 6.599 1.97 12.387 6.011 16.504 11.532 4.12 5.521 6.346 12.222 6.352 19.107v233.24c30.163-27.919 54.251-61.753 70.767-99.388s25.106-78.27 25.233-119.371v-165.24c0-8.487 3.37-16.625 9.373-22.627 6.002-5.999 14.14-9.373 22.627-9.373s16.625 3.373 22.627 9.373c6.002 6.002 9.373 14.14 9.373 22.627v165.4c-0.181 59.281-14.854 117.615-42.743 169.924-27.886 52.308-68.141 97.006-117.257 130.196zM335.059 640h-64c-16.974 0-33.253-6.743-45.255-18.745s-18.745-28.28-18.745-45.255v-416c0-8.487 3.371-16.625 9.373-22.627 6.001-5.999 14.141-9.373 22.627-9.373s16.626 3.373 22.627 9.373c6.001 6.002 9.373 14.14 9.373 22.627v416h64c8.487 0 16.625 3.373 22.627 9.373 6.002 6.002 9.373 14.14 9.373 22.627s-3.37 16.628-9.373 22.627c-6.002 6.002-14.14 9.373-22.627 9.373z" />
<glyph unicode="&#xe93b;" glyph-name="ph--hand-withdraw-1" horiz-adv-x="1054" d="M943.059 165.4v-165.4c0-8.487-3.37-16.625-9.373-22.627s-14.14-9.373-22.627-9.373c-8.487 0-16.625 3.37-22.627 9.373s-9.373 14.14-9.373 22.627v165.4c-0.148 41.074-8.749 81.676-25.266 119.284-16.514 37.608-40.593 71.415-70.734 99.316v-233.4c-0.006-6.888-2.232-13.589-6.352-19.107-4.117-5.521-9.906-9.565-16.504-11.532s-13.658-1.753-20.125 0.608c-6.469 2.364-12.002 6.752-15.779 12.511l-42.722 65.238c-0.319 0.482-0.638 1-0.919 1.521-6.277 11.080-16.694 19.215-28.967 22.612-12.273 3.4-25.392 1.783-36.472-4.491-11.080-6.277-19.215-16.697-22.612-28.967-3.4-12.273-1.783-25.392 4.491-36.475l88.522-135.159c4.647-7.102 6.283-15.761 4.545-24.067-1.738-8.309-6.701-15.586-13.806-20.233-7.102-4.647-15.761-6.283-24.067-4.545s-15.586 6.701-20.233 13.806l-90.001 137.52c-13.782 23.618-18.447 51.465-13.113 78.288s20.296 50.769 42.068 67.319c21.769 16.55 48.845 24.564 76.116 22.528 27.272-2.033 52.856-13.978 71.93-33.575v449.599h-64c-8.487 0-16.625 3.371-22.627 9.373s-9.373 14.141-9.373 22.627c0 8.487 3.37 16.626 9.373 22.627s14.14 9.373 22.627 9.373h64c16.974 0 33.253-6.743 45.255-18.745s18.745-28.281 18.745-45.255v-238.481c49.116-33.19 89.371-77.887 117.257-130.196 27.889-52.311 42.562-110.646 42.743-169.924zM367.059 736c0 8.487-3.37 16.626-9.373 22.627s-14.14 9.373-22.627 9.373h-64c-16.974 0-33.253-6.743-45.255-18.745s-18.745-28.281-18.745-45.255v-544c0-8.487 3.371-16.625 9.373-22.627s14.141-9.373 22.627-9.373c8.487 0 16.626 3.37 22.627 9.373s9.373 14.14 9.373 22.627v544h64c8.487 0 16.625 3.371 22.627 9.373s9.373 14.141 9.373 22.627zM645.698 566.639c-2.973 2.976-6.499 5.337-10.385 6.945-3.885 1.611-8.050 2.44-12.255 2.44s-8.37-0.828-12.255-2.44c-3.885-1.608-7.412-3.97-10.385-6.945l-73.361-73.4v402.76c0 8.487-3.37 16.626-9.373 22.627s-14.14 9.373-22.627 9.373c-8.487 0-16.625-3.371-22.627-9.373s-9.373-14.141-9.373-22.627v-402.76l-73.361 73.4c-6.002 6.005-14.149 9.379-22.639 9.379s-16.637-3.373-22.639-9.379c-6.005-6.002-9.379-14.149-9.379-22.639s3.373-16.637 9.379-22.639l128-128c2.973-2.976 6.499-5.337 10.385-6.945 3.885-1.611 8.050-2.44 12.255-2.44s8.37 0.828 12.255 2.44c3.885 1.608 7.412 3.97 10.385 6.945l128 128c2.976 2.973 5.337 6.499 6.945 10.385 1.611 3.885 2.44 8.050 2.44 12.255s-0.828 8.37-2.44 12.255c-1.608 3.885-3.97 7.412-6.945 10.385z" />
<glyph unicode="&#xe93c;" glyph-name="ph--money-wavy-light-1" horiz-adv-x="1054" d="M987.778 713.121c-3.451 2.155-7.397 3.395-11.463 3.605s-8.12-0.618-11.776-2.405c-174.64-85.28-298.761-45.56-430.161-3.52-134.677 43.080-273.918 87.6-465.839-6.16-4.041-1.97-7.447-5.036-9.83-8.848s-3.648-8.216-3.65-12.712v-480c0.002-4.069 1.039-8.072 3.013-11.631s4.821-6.557 8.273-8.713c3.452-2.156 7.395-3.397 11.46-3.611s8.116 0.611 11.774 2.394c174.64 85.281 298.761 45.562 430.161 3.521 75.999-24.359 153.838-49.2 241.679-49.2 67.4 0 140.839 14.64 224 55.362 4.039 1.97 7.445 5.036 9.83 8.846 2.382 3.813 3.647 8.216 3.65 12.713v480c0.018 4.057-0.994 8.052-2.936 11.613-1.946 3.561-4.762 6.57-8.186 8.747zM951.058 228c-167.599-76.839-288.681-38.12-416.681 2.84-76.198 24.44-153.838 49.161-241.678 49.161-57.96 0-120.32-10.8-189.64-39.68v427.68c167.6 76.84 288.681 38.12 416.681-2.84 126.44-40.521 256.958-82.279 431.318-9.599v-427.562zM527.059 568.001c-23.733 0-46.935-7.038-66.668-20.224s-35.114-31.928-44.198-53.853c-9.080-21.929-11.46-46.056-6.828-69.334 4.629-23.278 16.059-44.658 32.84-61.443 16.782-16.782 38.165-28.211 61.443-32.84s47.405-2.253 69.334 6.828c21.926 9.083 40.668 24.465 53.853 44.198s20.224 42.936 20.224 66.668c0 31.825-12.643 62.35-35.147 84.853s-53.028 35.147-84.853 35.147zM527.059 376.001c-14.24 0-28.16 4.222-40.002 12.134-11.839 7.912-21.067 19.155-26.516 32.313-5.451 13.155-6.876 27.633-4.099 41.598 2.78 13.966 9.635 26.796 19.706 36.864 10.068 10.071 22.898 16.929 36.864 19.706s28.443 1.352 41.602-4.096c13.155-5.451 24.398-14.679 32.31-26.519 7.912-11.842 12.134-25.763 12.134-40.002 0-19.095-7.584-37.409-21.088-50.911-13.502-13.502-31.816-21.088-50.911-21.088zM231.059 576v-192c0-6.364-2.529-12.469-7.029-16.971-4.501-4.5-10.606-7.029-16.971-7.029s-12.47 2.53-16.971 7.029c-4.501 4.503-7.029 10.607-7.029 16.971v192c0 6.367 2.529 12.469 7.029 16.971 4.501 4.5 10.606 7.029 16.971 7.029s12.47-2.53 16.971-7.029c4.501-4.503 7.029-10.604 7.029-16.971zM823.058 320v192c0 6.367 2.53 12.469 7.029 16.971 4.503 4.5 10.607 7.029 16.971 7.029s12.469-2.53 16.971-7.029c4.5-4.503 7.029-10.604 7.029-16.971v-192c0-6.364-2.53-12.469-7.029-16.971-4.503-4.5-10.607-7.029-16.971-7.029s-12.469 2.53-16.971 7.029c-4.5 4.503-7.029 10.607-7.029 16.971z" />
<glyph unicode="&#xe93d;" glyph-name="ph--shopping-cart-1" horiz-adv-x="1054" d="M935.62 724.52c-3.006 3.595-6.761 6.486-11.005 8.469s-8.873 3.011-13.556 3.011h-645.28l-24.32 133.72c-1.34 7.373-5.225 14.043-10.977 18.845s-13.009 7.434-20.503 7.435h-98.92c-8.487 0-16.626-3.371-22.627-9.373s-9.373-14.141-9.373-22.627c0-8.487 3.371-16.626 9.373-22.627s14.141-9.373 22.627-9.373h72l102.24-561.161c3.012-16.64 10.366-32.193 21.32-45.080-15.118-14.119-26.030-32.151-31.526-52.094s-5.36-41.020 0.391-60.892c5.751-19.872 16.894-37.762 32.192-51.688 15.297-13.923 34.153-23.341 54.477-27.205 20.323-3.861 41.318-2.021 60.66 5.319 19.342 7.343 36.271 19.896 48.911 36.271 12.643 16.375 20.501 35.933 22.706 56.501 2.208 20.57-1.328 41.349-10.21 60.030h181.679c-7.159-14.987-10.863-31.392-10.839-48.002 0-22.149 6.569-43.803 18.875-62.223 12.306-18.417 29.798-32.774 50.263-41.249 20.468-8.478 42.987-10.695 64.711-6.373 21.727 4.319 41.683 14.987 57.347 30.651s26.332 35.62 30.651 57.347c4.322 21.724 2.105 44.243-6.373 64.711-8.475 20.465-22.832 37.957-41.249 50.263-18.42 12.306-40.075 18.875-62.223 18.875h-387.322c-7.493 0-14.749 2.632-20.501 7.436-5.755 4.801-9.638 11.472-10.978 18.845l-12.68 69.719h463.998c22.483 0.003 44.249 7.897 61.509 22.305 17.257 14.408 28.913 34.415 32.931 56.534l48.64 267.441c0.825 4.622 0.62 9.369-0.596 13.904s-3.415 8.746-6.442 12.336zM431.059 143.998c0-9.493-2.816-18.772-8.090-26.666s-12.77-14.047-21.54-17.679c-8.773-3.632-18.423-4.584-27.735-2.732-9.309 1.852-17.863 6.424-24.576 13.137s-11.285 15.267-13.137 24.576c-1.852 9.312-0.901 18.962 2.732 27.735 3.632 8.77 9.785 16.267 17.679 21.54s17.173 8.090 26.669 8.090c12.728 0 24.937-5.057 33.94-14.059s14.059-21.212 14.059-33.943zM815.059 143.998c0-9.493-2.816-18.772-8.090-26.666s-12.77-14.047-21.54-17.679c-8.773-3.632-18.423-4.584-27.735-2.732-9.309 1.852-17.863 6.424-24.576 13.137s-11.285 15.267-13.137 24.576c-1.852 9.312-0.901 18.962 2.732 27.735 3.632 8.77 9.785 16.267 17.679 21.54s17.173 8.090 26.669 8.090c12.728 0 24.937-5.057 33.94-14.059s14.059-21.212 14.059-33.943zM831.060 442.281c-1.343-7.394-5.246-14.080-11.026-18.884-5.777-4.807-13.062-7.424-20.576-7.397h-475.518l-46.521 256h595.279l-41.638-229.719z" />
<glyph unicode="&#xe93e;" glyph-name="plus" d="M768 512h-170.667v170.667c0 47.104-38.229 85.333-85.333 85.333s-85.333-38.229-85.333-85.333l3.029-170.667h-173.696c-47.104 0-85.333-38.229-85.333-85.333s38.229-85.333 85.333-85.333l173.696 3.029-3.029-173.696c0-47.104 38.229-85.333 85.333-85.333s85.333 38.229 85.333 85.333v173.696l170.667-3.029c47.104 0 85.333 38.229 85.333 85.333s-38.229 85.333-85.333 85.333z" />
<glyph unicode="&#xe93f;" glyph-name="add" d="M810 384.667h-256v-256h-84v256h-256v84h256v256h84v-256h256v-84z" />
<glyph unicode="&#xe940;" glyph-name="plus1" d="M213.333 384h256v-256c0-23.552 19.115-42.667 42.667-42.667s42.667 19.115 42.667 42.667v256h256c23.552 0 42.667 19.115 42.667 42.667s-19.115 42.667-42.667 42.667h-256v256c0 23.552-19.115 42.667-42.667 42.667s-42.667-19.115-42.667-42.667v-256h-256c-23.552 0-42.667-19.115-42.667-42.667s19.115-42.667 42.667-42.667z" />
<glyph unicode="&#xe941;" glyph-name="minus" d="M819.2 460.8c0-28.314-2.458-51.2-30.771-51.2h-552.858c-28.262 0-30.771 22.886-30.771 51.2s2.509 51.2 30.771 51.2h552.909c28.262 0 30.72-22.886 30.72-51.2z" />
<glyph unicode="&#xe942;" glyph-name="minus1" d="M213.333 384h597.333c23.552 0 42.667 19.115 42.667 42.667s-19.115 42.667-42.667 42.667h-597.333c-23.552 0-42.667-19.115-42.667-42.667s19.115-42.667 42.667-42.667z" />
<glyph unicode="&#xe943;" glyph-name="minimize" d="M256 128.667h512v-86h-512v86z" />
<glyph unicode="&#xe944;" glyph-name="banknote, check, bill, money, cash" d="M1005.28 621.248l-320 320c-15.872 15.872-38.88 22.24-60.672 16.864-11.488-2.816-21.76-8.736-29.888-16.864-7.264-7.264-12.736-16.256-15.872-26.304-14.496-47.008-39.552-87.872-76.64-124.928-49.536-49.504-114.048-87.008-182.304-126.656-72.448-41.984-147.296-85.504-208.64-146.816-52.128-52.192-87.616-110.24-108.416-177.632-7.008-22.752-0.896-47.36 15.872-64.192l320-320c15.872-15.872 38.88-22.24 60.672-16.864 11.488 2.88 21.76 8.736 29.888 16.864 7.264 7.264 12.736 16.256 15.872 26.368 14.528 47.008 39.584 87.872 76.704 124.928 49.504 49.504 113.984 86.944 182.304 126.56 72.384 42.048 147.264 85.568 208.576 146.88 52.128 52.128 87.616 110.24 108.448 177.632 6.976 22.72 0.832 47.424-15.904 64.16zM384 0c-105.984 105.984-214.016 214.048-320 320 90.944 294.432 485.12 281.568 576 576 105.984-105.952 214.048-214.016 320.064-320-90.976-294.368-485.152-281.568-576.064-576zM625.984 483.2c-10.432 8.736-20.928 14.688-31.488 17.632-10.496 2.944-20.992 4.128-31.616 3.36-10.496-0.8-21.248-3.2-32-7.328-10.752-4.192-21.568-8.736-32.448-14.016-17.184 19.744-34.368 39.264-51.552 57.376 7.744 7.008 15.264 10.56 22.496 10.816 7.264 0.32 14.24-0.448 20.864-2.112 6.752-1.696 12.928-3.136 18.624-4.256 5.76-1.12 10.752 0.128 15.136 3.808 4.64 4 7.2 9.184 7.552 15.424 0.32 6.304-2.048 12.448-7.328 18.432-6.752 7.744-14.88 12.448-24.64 14.176-9.632 1.696-19.488 1.568-29.76-0.672-10.112-2.304-19.744-6.112-28.864-11.488s-16.448-10.88-21.888-16.256c-2.080 1.984-4.16 3.936-6.24 5.888-2.304 2.112-5.184 3.264-8.64 3.2-3.488 0-6.368-1.504-8.736-4.256-2.304-2.688-3.36-5.824-2.944-9.12 0.32-3.424 1.696-6.048 4.064-8.064 2.080-1.76 4.16-3.488 6.24-5.312-8.192-9.888-14.944-20.8-20.256-32.32-5.376-11.552-8.576-23.008-9.76-34.112-1.248-11.2-0.064-21.44 3.36-30.944 3.424-9.568 9.76-17.696 19.008-25.376 15.072-12.512 32.8-17.824 53.376-16.64 20.512 1.248 42.624 7.36 66.4 20.128 18.88-21.824 37.824-43.488 56.736-63.616-8-6.752-15.008-10.624-21.184-11.872-6.176-1.312-11.68-1.184-16.672 0.32-4.992 1.568-9.632 3.808-13.888 6.688-4.256 2.944-8.448 5.44-12.64 7.488-4.128 2.048-8.384 3.2-12.736 3.264s-8.992-2.048-14.112-6.432c-5.248-4.576-7.872-9.888-7.872-15.872 0-5.952 2.752-12 8.128-18.112 5.44-6.112 12.512-11.264 21.056-15.328s18.208-6.624 28.832-7.328c10.624-0.736 21.824 0.864 33.632 5.248 11.872 4.32 23.616 12.128 35.2 23.744 5.568-5.44 11.2-10.624 16.8-15.616 2.368-2.048 5.248-3.072 8.736-2.816 3.36 0.128 6.304 1.696 8.64 4.512 2.368 2.88 3.36 6.048 3.008 9.376-0.32 3.36-1.696 5.952-4 7.808-5.632 4.512-11.264 9.248-16.864 14.24 9.568 11.744 17.248 24.128 22.944 36.384 5.696 12.32 9.056 24.192 10.176 35.2 1.12 11.072-0.192 21.056-3.808 30.112-3.584 9.184-9.952 17.056-19.072 24.64zM447.072 461.504c-9.056-0.384-16.96 2.624-23.872 9.312-2.944 2.816-4.992 6.24-6.24 10.304-1.312 4.064-1.76 8.512-1.248 13.376 0.448 4.8 1.888 9.824 4.384 14.88 2.368 5.056 5.888 10.112 10.368 15.008 16.224-16.128 32.416-33.824 48.64-52.128-12.288-6.752-22.976-10.368-32.032-10.752zM598.016 397.44c-2.88-5.312-6.176-10.048-10.048-14.176-17.952 18.112-35.872 38.016-53.76 58.432 4.576 2.048 9.376 4.192 14.56 6.368s10.368 3.616 15.552 4.512c5.312 0.8 10.56 0.576 15.808-0.672 5.184-1.312 10.112-4.128 14.688-8.576 4.512-4.512 7.36-9.184 8.512-14.24 1.248-5.12 1.312-10.304 0.448-15.616-0.928-5.344-2.816-10.656-5.76-16.032zM470.944 250.24c6.304 5.088 15.584 4.832 21.376-1.056 6.272-6.24 6.272-16.448 0-22.688-0.512-0.512-1.056-0.864-1.632-1.312l0.064-0.064c-20.256-15.392-36.896-29.248-54.848-47.2-16.224-16.192-30.88-33.248-43.552-50.56l-20.448-28c-0.64-1.152-1.408-2.208-2.368-3.2-6.272-6.24-16.48-6.24-22.72 0-5.44 5.44-6.112 13.824-2.112 20.064l-0.064 0.064 21.888 29.888c13.664 18.688 29.376 36.992 46.752 54.368 18.080 18.144 37.6 34.336 57.6 49.696h0.064zM588.096 713.12c16.192 16.192 30.816 33.184 43.52 50.592l21.248 29.12c0.768 1.376 1.632 2.752 2.816 3.936 6.304 6.304 16.512 6.304 22.816 0 5.984-6.016 6.24-15.52 0.8-21.888l0.064-0.064-21.888-30.016c-13.696-18.688-29.376-36.928-46.752-54.304-18.080-18.080-37.568-34.336-57.568-49.696l-0.128 0.064c-6.368-5.856-16.256-5.728-22.368 0.448-6.304 6.304-6.304 16.576 0 22.88 1.12 1.184 2.432 2.016 3.744 2.752 18.816 14.368 36.96 29.44 53.696 46.176z" />
<glyph unicode="&#xe945;" glyph-name="coins, money1" d="M912 224h-391.872c11.488 19.808 20.288 41.28 26.112 64h365.76c17.696 0 32-14.304 32-32 0-17.664-14.304-32-32-32zM912 320h-359.552c1.312 10.496 2.208 21.152 2.208 32 0 10.88-0.896 21.504-2.208 32h359.552c17.696 0 32-14.304 32-32 0-17.664-14.304-32-32-32zM912 416h-365.76c-5.856 22.72-14.624 44.192-26.112 64h391.872c17.696 0 32-14.304 32-32 0-17.664-14.304-32-32-32zM912 512h-413.696c-20.8 25.952-46.496 47.776-75.808 64h489.504c17.696 0 32-14.304 32-32 0-17.664-14.304-32-32-32zM912 608h-512c-17.696 0-32 14.336-32 32 0 17.696 14.304 32 32 32h512c17.696 0 32-14.304 32-32 0-17.664-14.304-32-32-32zM912 704h-512c-17.696 0-32 14.336-32 32 0 17.696 14.304 32 32 32h512c17.696 0 32-14.304 32-32 0-17.664-14.304-32-32-32zM528 352c0-123.712-100.32-224-224-224-123.712 0-224 100.288-224 224s100.288 224 224 224c123.68 0 224-100.288 224-224zM383.296 327.648c-3.232 7.648-7.392 14.304-12.608 19.968s-11.136 10.528-17.792 14.592c-6.656 4.064-13.44 7.68-20.384 10.912-6.944 3.2-13.728 6.208-20.384 9.088-6.656 2.848-12.64 5.92-17.888 9.184-5.28 3.264-9.472 7.008-12.608 11.2s-4.704 9.152-4.704 14.912c0 3.84 0.704 7.488 2.080 10.944 1.408 3.424 3.52 6.4 6.4 8.864 2.848 2.432 6.432 4.384 10.688 5.76 4.256 1.408 9.28 2.080 15.008 2.080 7.328 0 14.048-0.864 20.192-2.656 6.112-1.824 11.52-3.776 16.192-5.984 4.672-2.176 8.608-4.192 11.808-6.048s5.536-2.752 7.008-2.752 2.624 0.384 3.488 1.184c0.832 0.8 1.536 2.048 1.984 3.808 0.48 1.728 0.768 3.936 0.992 6.592 0.192 2.688 0.288 5.984 0.288 9.856 0 3.456-0.064 6.368-0.192 8.672-0.128 2.336-0.384 4.288-0.672 5.824-0.352 1.536-0.736 2.784-1.184 3.712-0.512 0.928-1.376 2.048-2.72 3.36-1.344 1.344-4.064 3.008-8.192 4.96-4.128 1.984-8.864 3.776-14.176 5.344-5.344 1.6-11.072 2.848-17.184 3.776-1.248 0.192-2.528 0.128-3.776 0.288v33.088h-31.488v-33.088c-5.792-0.768-11.392-1.92-16.832-3.488-10.592-3.072-19.776-7.68-27.584-13.888s-14.016-14.016-18.592-23.36c-4.608-9.408-6.88-20.288-6.88-32.672 0-10.784 1.6-20.064 4.768-27.776 3.2-7.712 7.36-14.432 12.512-20.096s10.944-10.496 17.472-14.56c6.528-4.096 13.28-7.712 20.192-10.912 6.944-3.2 13.664-6.208 20.192-9.088s12.352-5.952 17.472-9.184c5.152-3.296 9.312-7.008 12.512-11.2 3.2-4.224 4.8-9.248 4.8-15.104 0-5.088-0.928-9.696-2.784-13.856-1.888-4.128-4.576-7.584-8.096-10.4s-7.808-4.96-12.864-6.496c-5.088-1.536-10.784-2.304-17.216-2.304-9.728 0-18.304 1.088-25.696 3.296s-13.76 4.64-19.104 7.328c-5.344 2.656-9.696 5.056-13.088 7.296-3.392 2.176-6.016 3.296-7.904 3.296-1.344 0-2.528-0.384-3.488-1.088-1.024-0.736-1.824-1.984-2.4-3.712-0.608-1.76-1.024-4-1.312-6.816s-0.416-6.272-0.416-10.4c0-6.144 0.384-10.848 1.088-14.112 0.736-3.296 1.984-5.792 3.712-7.488 1.728-1.728 4.544-3.68 8.48-5.952s8.832-4.384 14.688-6.432c5.856-2.016 12.64-3.776 20.288-5.248 7.648-1.44 15.968-2.144 24.896-2.144 0.384 0 0.736 0.064 1.152 0.064v-30.816h31.456v34.944c1.504 0.384 3.104 0.576 4.576 0.992 11.584 3.456 21.728 8.64 30.4 15.488s15.52 15.392 20.608 25.664c5.056 10.272 7.552 22.176 7.552 35.776 0.032 10.336-1.568 19.328-4.736 27.008zM498.304 192h413.696c17.696 0 32-14.304 32-32 0-17.664-14.304-32-32-32h-489.504c29.312 16.224 55.008 38.048 75.808 64z" />
<glyph unicode="&#xe946;" glyph-name="block-toys-svgrepo-com-1" d="M682.667 789.333c0 23.564-19.103 42.667-42.667 42.667v0h-256c-23.564 0-42.667-19.103-42.667-42.667v0-298.667h341.333zM128 362.667v-256c0-23.564 19.103-42.667 42.667-42.667v0h298.667v341.333h-298.667c-23.564 0-42.667-19.103-42.667-42.667v0zM853.333 405.333h-298.667v-341.333h298.667c23.564 0 42.667 19.103 42.667 42.667v0 256c0 23.564-19.103 42.667-42.667 42.667v0z" />
<glyph unicode="&#xe947;" glyph-name="block-toys-svgrepo-com" d="M896 490.667h-149.333v341.333c0 23.564-19.103 42.667-42.667 42.667v0h-384c-23.564 0-42.667-19.103-42.667-42.667v0-341.333h-149.333c-23.564 0-42.667-19.103-42.667-42.667v0-384c0-23.564 19.103-42.667 42.667-42.667v0h768c23.564 0 42.667 19.103 42.667 42.667v0 384c0 23.564-19.103 42.667-42.667 42.667v0zM469.333 106.667h-298.667v298.667h298.667zM362.667 490.667v298.667h298.667v-298.667zM853.333 106.667h-298.667v298.667h298.667z" />
<glyph unicode="&#xe948;" glyph-name="money-svgrepo-com" d="M64 256h896v-64h-896v64zM64 128h896v-64h-896v64zM768 640c-35.346 0-64-28.654-64-64s28.654-64 64-64c35.346 0 64 28.654 64 64v0c0 35.346-28.654 64-64 64v0zM512 448c-70.692 0-128 57.308-128 128s57.308 128 128 128c70.692 0 128-57.308 128-128v0c-0.082-70.659-57.34-127.918-127.992-128h-0.008zM512 640c-35.346 0-64-28.654-64-64s28.654-64 64-64c35.346 0 64 28.654 64 64v0c-0.036 35.332-28.668 63.964-63.997 64h-0.003zM256 640c-35.346 0-64-28.654-64-64s28.654-64 64-64c35.346 0 64 28.654 64 64v0c0 35.346-28.654 64-64 64v0zM896 320h-768c-35.309 0.093-63.907 28.691-64 63.991v384.009c0.093 35.309 28.691 63.907 63.991 64h768.009c35.309-0.093 63.907-28.691 64-63.991v-384.009c-0.049-35.326-28.674-63.951-63.995-64h-0.005zM896 768h-768v-384h768z" />
<glyph unicode="&#xe949;" glyph-name="money-cash-currency-finance-bank-coin-business-svgrepo-com" d="M704 672h-6.080c3.773 9.484 5.997 20.47 6.080 31.966v64.034c0 53.019-42.981 96-96 96v0h-512c-53.019 0-96-42.981-96-96v0-64c0.254-43.922 29.965-80.835 70.366-92.001l0.674-0.159c-4.422-10.6-7.006-22.914-7.040-35.827v-64.013c0.034-12.926 2.618-25.24 7.274-36.477l-0.234 0.637c-41.075-11.325-70.786-48.238-71.040-92.131v-64.029c0.254-43.922 29.965-80.835 70.366-92.001l0.674-0.159c-4.422-10.6-7.006-22.914-7.040-35.827v-64.013c0-53.019 42.981-96 96-96v0h544c176.731 0 320 143.269 320 320s-143.269 320-320 320v0zM410.88 480h-250.88c-17.673 0-32 14.327-32 32v0 64c0 17.673 14.327 32 32 32v0h352c-43.717-33.092-78.181-76.179-100.311-125.962l-0.809-2.038zM64 768c0 17.673 14.327 32 32 32v0h512c17.673 0 32-14.327 32-32v0-64c0-17.673-14.327-32-32-32v0h-512c-17.673 0-32 14.327-32 32v0zM64 384c0 17.673 14.327 32 32 32v0h294.4c-4.070-19.241-6.4-41.348-6.4-64s2.33-44.759 6.764-66.096l-0.364 2.096h-294.4c-17.673 0-32 14.327-32 32v0zM160 96c-17.673 0-32 14.327-32 32v0 64c0 17.673 14.327 32 32 32v0h250.88c22.939-51.821 57.403-94.908 100.321-127.42l0.799-0.58zM704 96c-141.385 0-256 114.615-256 256s114.615 256 256 256c141.385 0 256-114.615 256-256v0c0-141.385-114.615-256-256-256v0zM704 448h64c17.673 0 32 14.327 32 32s-14.327 32-32 32v0h-32c0 17.673-14.327 32-32 32s-32-14.327-32-32v0-5.76c-37.213-13.784-63.255-48.972-63.255-90.243 0-52.757 42.557-95.575 95.215-95.997h0.040c17.673 0 32-14.327 32-32s-14.327-32-32-32v0h-64c-17.673 0-32-14.327-32-32s14.327-32 32-32v0h32c0-17.673 14.327-32 32-32s32 14.327 32 32v0 5.76c37.213 13.784 63.255 48.972 63.255 90.243 0 52.757-42.557 95.575-95.215 95.997h-0.040c-17.673 0-32 14.327-32 32s14.327 32 32 32v0z" />
<glyph unicode="&#xe94a;" glyph-name="edit-3" d="M512 42.667h384c23.552 0 42.667 19.115 42.667 42.667s-19.115 42.667-42.667 42.667h-384c-23.552 0-42.667-19.115-42.667-42.667s19.115-42.667 42.667-42.667zM673.835 819.499l-533.333-533.333c-5.205-5.163-9.259-11.947-11.221-19.84l-42.667-170.667c-1.664-6.4-1.792-13.568 0-20.693 5.717-22.869 28.885-36.779 51.755-31.061l170.667 42.667c7.125 1.749 14.080 5.504 19.84 11.221l533.333 533.333c25.984 25.984 38.997 60.16 38.997 94.165s-13.013 68.181-38.997 94.165-60.203 39.040-94.208 39.040-68.181-13.013-94.165-38.997zM734.165 759.168c9.344 9.344 21.504 13.995 33.835 13.995s24.491-4.651 33.835-13.995 13.995-21.504 13.995-33.835-4.651-24.491-13.995-33.835l-524.971-524.971-90.24-22.571 22.571 90.24z" />
<glyph unicode="&#xe94b;" glyph-name="file_present" d="M682 512.667v-214q0-70-50-120t-120-50-120 50-50 120v278q0 44 31 75t75 31h12q42-4 68-37t26-75v-272h-84v278q0 20-22 20t-22-20v-278q0-34 26-60t60-26 60 26 26 60v214h84zM256 84.667h512v512h-170v172h-342v-684zM640 852.667l214-212v-556q0-34-26-59t-60-25h-512q-34 0-60 25t-26 59v684q0 34 26 59t60 25h384z" />
<glyph unicode="&#xe94c;" glyph-name="document" d="M840.832 627.499l-170.667 170.667c-7.979 8.021-18.816 12.501-30.165 12.501h-341.333c-70.571 0-128-57.429-128-128v-512c0-70.571 57.429-128 128-128h426.667c70.571 0 128 57.429 128 128v426.667c0 11.349-4.48 22.187-12.501 30.165zM750.336 597.334h-46.336c-35.285 0-64 28.715-64 64v46.336l110.336-110.336zM725.333 128h-426.667c-23.552 0-42.667 19.115-42.667 42.667v512c0 23.552 19.115 42.667 42.667 42.667h298.667v-64c0-58.837 47.829-106.667 106.667-106.667h64v-384c0-23.552-19.115-42.667-42.667-42.667z" />
<glyph unicode="&#xe94d;" glyph-name="files" d="M543.488 446.496h-256v-28.992h256v28.992zM543.488 350.496h-256v-31.008h256v31.008zM384.512 831.488v-96.512h-97.024v-96.512h-94.496v-606.016h447.008v96.992h94.496v94.016h96.512v608h-446.496zM608.992 63.488h-384.992v546.016h384.992v-546.016zM703.488 158.496h-63.488v480h-321.504v65.504h384.992v-545.504zM800 254.496h-65.504v480.512h-319.008v65.504h384.512v-546.016zM543.488 159.008h-256v-31.008h256v31.008zM543.488 255.488h-256v-31.008h256v31.008zM543.968 543.488h-256v-32h256v32z" />
<glyph unicode="&#xe94e;" glyph-name="file-plus" d="M750.336 640h-110.336v110.336zM883.499 627.499l-256 256c-3.925 3.925-8.619 7.083-13.824 9.259s-10.795 3.243-16.341 3.243h-341.333c-35.328 0-67.413-14.379-90.496-37.504s-37.504-55.168-37.504-90.496v-682.667c0-35.328 14.379-67.413 37.504-90.496s55.168-37.504 90.496-37.504h512c35.328 0 67.413 14.379 90.496 37.504s37.504 55.168 37.504 90.496v512c0 11.776-4.779 22.443-12.501 30.165zM554.667 810.667v-213.333c0-23.552 19.115-42.667 42.667-42.667h213.333v-469.333c0-11.776-4.736-22.4-12.501-30.165s-18.389-12.501-30.165-12.501h-512c-11.776 0-22.4 4.736-30.165 12.501s-12.501 18.389-12.501 30.165v682.667c0 11.776 4.736 22.4 12.501 30.165s18.389 12.501 30.165 12.501zM384 256h85.333v-85.333c0-23.552 19.115-42.667 42.667-42.667s42.667 19.115 42.667 42.667v85.333h85.333c23.552 0 42.667 19.115 42.667 42.667s-19.115 42.667-42.667 42.667h-85.333v85.333c0 23.552-19.115 42.667-42.667 42.667s-42.667-19.115-42.667-42.667v-85.333h-85.333c-23.552 0-42.667-19.115-42.667-42.667s19.115-42.667 42.667-42.667z" />
<glyph unicode="&#xe94f;" glyph-name="file" d="M750.336 597.334h-153.003v153.003zM883.499 584.832l-298.667 298.667c-3.925 3.925-8.619 7.083-13.824 9.259s-10.795 3.243-16.341 3.243h-298.667c-35.328 0-67.413-14.379-90.496-37.504s-37.504-55.168-37.504-90.496v-682.667c0-35.328 14.379-67.413 37.504-90.496s55.168-37.504 90.496-37.504h512c35.328 0 67.413 14.379 90.496 37.504s37.504 55.168 37.504 90.496v469.333c0 11.776-4.779 22.443-12.501 30.165zM512 810.667v-256c0-23.552 19.115-42.667 42.667-42.667h256v-426.667c0-11.776-4.736-22.4-12.501-30.165s-18.389-12.501-30.165-12.501h-512c-11.776 0-22.4 4.736-30.165 12.501s-12.501 18.389-12.501 30.165v682.667c0 11.776 4.736 22.4 12.501 30.165s18.389 12.501 30.165 12.501z" />
<glyph unicode="&#xe950;" glyph-name="info-circle" d="M511.979 647.252c-9.93-0.089-19.425-4.074-26.447-11.096s-11.010-16.52-11.1-26.451v-188.587c0-9.901 3.937-19.397 10.938-26.399s16.495-10.934 26.396-10.934c9.901 0 19.4 3.933 26.401 10.934s10.932 16.497 10.932 26.399v188.587c0.040 4.906-0.888 9.771-2.734 14.316s-4.572 8.681-8.021 12.17c-3.449 3.489-7.554 6.262-12.078 8.159s-9.38 2.884-14.287 2.9zM511.979 322.986c-7.384-0.043-14.587-2.273-20.703-6.41-6.116-4.141-10.87-9.997-13.656-16.832-2.787-6.842-3.482-14.349-2-21.581 1.482-7.238 5.077-13.869 10.328-19.059s11.922-8.71 19.172-10.106c7.25-1.402 14.751-0.621 21.557 2.246 6.806 2.861 12.61 7.68 16.677 13.843s6.214 13.395 6.172 20.781c-0.005 4.909-0.98 9.766-2.875 14.298-1.894 4.525-4.67 8.634-8.161 12.090-3.491 3.45-7.627 6.176-12.177 8.016-4.55 1.843-9.424 2.765-14.333 2.714zM511.979 21.331c-113.159 0-221.682 44.954-301.698 124.966-80.015 80.019-124.968 188.543-124.968 301.702s44.953 221.683 124.968 301.699c80.016 80.016 188.539 124.968 301.698 124.968s221.685-44.952 301.698-124.968c80.013-80.015 124.966-188.54 124.966-301.699s-44.954-221.683-124.966-301.702c-80.013-80.013-188.539-124.966-301.698-124.966z" />
<glyph unicode="&#xe951;" glyph-name="support_agent" d="M896 416.667q0 88-31 160t-85 125-123 81-145 28-144-28-123-80-86-125-31-163q-20-10-31-30t-11-44v-84q0-36 25-61t59-25h44v260q0 62 23 116t64 95 95 64 116 23 116-23 95-64 64-95 23-116v-302h-340v-86h340q36 0 61 25t25 61v52q18 10 30 28t12 42v98q0 22-12 40t-30 28zM342 384.667q0 18 12 30t30 12 30-12 12-30-12-31-30-13-30 13-12 31zM598 384.667q0 18 12 30t30 12 30-12 12-30-12-31-30-13-30 13-12 31zM768 468.667q-10 60-46 109t-90 77-118 28q-48 0-96-19t-86-55-59-87-17-115q80 34 136 100t72 152q28-56 74-99t105-67 125-24z" />
<glyph unicode="&#xe952;" glyph-name="help_outline" d="M512 682.667q70 0 120-50t50-120q0-54-64-111t-64-103h-84q0 46 20 79t44 48 44 37 20 50q0 34-26 59t-60 25-60-25-26-59h-84q0 70 50 120t120 50zM512 84.667q140 0 241 101t101 241-101 241-241 101-241-101-101-241 101-241 241-101zM512 852.667q176 0 301-125t125-301-125-301-301-125-301 125-125 301 125 301 301 125zM470 170.667v86h84v-86h-84z" />
<glyph unicode="&#xe953;" glyph-name="group" d="M512 341.334c58.923 0 112.256 23.893 150.869 62.507 38.571 38.571 62.464 91.904 62.464 150.827s-23.893 112.256-62.464 150.827c-38.613 38.613-91.947 62.507-150.869 62.507s-112.256-23.893-150.869-62.507c-38.571-38.571-62.464-91.904-62.464-150.827s23.893-112.256 62.464-150.827c38.613-38.613 91.947-62.507 150.869-62.507zM853.333 298.667c29.44 0 56.107 11.904 75.435 31.189s31.232 45.952 31.232 75.477c0 29.44-11.904 56.107-31.232 75.435s-45.995 31.232-75.435 31.232c-29.483 0-56.149-11.904-75.477-31.232-19.285-19.328-31.189-45.995-31.189-75.435 0-29.483 11.904-56.149 31.189-75.477s45.995-31.189 75.477-31.189zM853.333 273.494c-56.789 0-99.499-17.323-124.459-41.301-47.573 39.125-122.795 66.475-216.875 66.475-96.683 0-170.453-27.648-217.259-66.731-25.429 24.107-68.608 41.557-124.075 41.557-93.355 0-149.333-46.507-149.333-93.099 0-23.253 55.979-46.592 149.333-46.592 25.771 0 48.896 2.176 69.248 5.675-0.427-3.883-1.707-7.68-1.707-11.52 0-42.667 102.656-85.333 273.792-85.333 160.512 0 273.792 42.667 273.792 85.333 0 3.627-0.469 7.253-0.853 10.88 19.755-3.115 42.453-5.035 68.395-5.035 87.509 0 149.333 23.339 149.333 46.592 0 46.592-58.581 93.099-149.333 93.099zM170.667 298.667c29.44 0 56.107 11.904 75.435 31.232s31.232 45.995 31.232 75.435c0 29.397-11.904 56.064-31.232 75.435-19.328 19.285-45.995 31.232-75.435 31.232-29.483 0-56.149-11.947-75.477-31.232-19.285-19.371-31.189-46.037-31.189-75.435 0-29.44 11.904-56.107 31.189-75.435 19.328-19.328 45.995-31.232 75.477-31.232z" />
<glyph unicode="&#xe954;" glyph-name="group1" horiz-adv-x="1097" d="M338.857 438.857c-59.429-1.714-113.143-27.429-151.429-73.143h-76.571c-57.143 0-110.857 27.429-110.857 90.857 0 46.286-1.714 201.714 70.857 201.714 12 0 71.429-48.571 148.571-48.571 26.286 0 51.429 4.571 76 13.143-1.714-12.571-2.857-25.143-2.857-37.714 0-52 16.571-103.429 46.286-146.286zM950.857 74.857c0-92.571-61.143-148-152.571-148h-499.429c-91.429 0-152.571 55.429-152.571 148 0 129.143 30.286 327.429 197.714 327.429 19.429 0 90.286-79.429 204.571-79.429s185.143 79.429 204.571 79.429c167.429 0 197.714-198.286 197.714-327.429zM365.714 804.571c0-80.571-65.714-146.286-146.286-146.286s-146.286 65.714-146.286 146.286 65.714 146.286 146.286 146.286 146.286-65.714 146.286-146.286zM768 585.143c0-121.143-98.286-219.429-219.429-219.429s-219.429 98.286-219.429 219.429 98.286 219.429 219.429 219.429 219.429-98.286 219.429-219.429zM1097.143 456.571c0-63.429-53.714-90.857-110.857-90.857h-76.571c-38.286 45.714-92 71.429-151.429 73.143 29.714 42.857 46.286 94.286 46.286 146.286 0 12.571-1.143 25.143-2.857 37.714 24.571-8.571 49.714-13.143 76-13.143 77.143 0 136.571 48.571 148.571 48.571 72.571 0 70.857-155.429 70.857-201.714zM1024 804.571c0-80.571-65.714-146.286-146.286-146.286s-146.286 65.714-146.286 146.286 65.714 146.286 146.286 146.286 146.286-65.714 146.286-146.286z" />
<glyph unicode="&#xe955;" glyph-name="archive" d="M554.667 426.667h-128c-11.776 0-21.333-9.557-21.333-21.333s9.557-21.333 21.333-21.333h128c11.776 0 21.333 9.557 21.333 21.333s-9.557 21.333-21.333 21.333zM853.333 725.334h-725.333c-23.595 0-42.667-19.115-42.667-42.667s19.072-42.667 42.667-42.667h725.333c23.595 0 42.667 19.115 42.667 42.667s-19.072 42.667-42.667 42.667zM768 597.334h-554.667c-23.595 0-42.667-19.115-42.667-42.667v-341.333c0-70.571 57.429-128 128-128h384c70.571 0 128 57.429 128 128v341.333c0 23.552-19.072 42.667-42.667 42.667zM682.667 170.667h-384c-23.552 0-42.667 19.157-42.667 42.667v298.667h469.333v-298.667c0-23.509-19.115-42.667-42.667-42.667z" />
<glyph unicode="&#xe956;" glyph-name="message-circle" d="M938.667 448.128v21.205c0 0.725-0.043 1.621-0.085 2.475-5.803 99.755-47.488 190.336-112.725 258.176-68.352 71.125-162.731 117.419-268.843 123.264-0.683 0.043-1.536 0.085-2.347 0.085h-20.864c-59.947 0.683-122.965-13.227-181.931-43.008-52.181-26.496-97.749-63.488-133.931-108.16-56.405-69.717-89.899-158.080-89.941-253.696-0.597-54.4 10.795-111.36 35.157-165.419l-75.605-226.859c-2.816-8.363-3.072-17.835 0-26.965 7.467-22.357 31.616-34.432 53.973-26.965l226.731 75.563c49.493-22.485 105.984-35.243 165.376-35.115 58.539 0.384 115.797 13.141 168.149 36.949 81.579 37.163 151.040 101.248 193.749 186.667 27.477 53.291 43.307 115.84 43.136 181.803zM853.333 447.872c0.128-52.267-12.459-101.333-33.664-142.464-34.176-68.352-88.832-118.827-153.259-148.139-41.387-18.859-86.827-28.971-133.376-29.269-52.096-0.128-101.163 12.459-142.293 33.664-10.624 5.504-22.528 6.059-33.067 2.56l-162.261-54.101 54.101 162.261c3.755 11.221 2.56 22.912-2.389 32.725-23.552 46.677-34.304 96.171-33.792 142.421 0.043 76.331 26.411 145.92 70.955 200.917 28.629 35.371 64.768 64.725 106.24 85.76 46.592 23.552 96.085 34.304 142.336 33.792h19.456c83.712-4.565 158.037-41.003 212.011-97.152 51.285-53.376 84.139-124.416 89.003-202.795z" />
<glyph unicode="&#xe957;" glyph-name="message" d="M768 640c23.125 0 42.667-19.541 42.667-42.667v-298.667c0-23.125-19.541-42.667-42.667-42.667h-376.704l-7.296-7.296v7.296h-128c-23.125 0-42.667 19.541-42.667 42.667v298.667c0 23.125 19.541 42.667 42.667 42.667h512zM768 725.334h-512c-70.4 0-128-57.6-128-128v-298.667c0-70.4 57.6-128 128-128h42.667v-128l128 128h341.333c70.4 0 128 57.6 128 128v298.667c0 70.4-57.6 128-128 128z" />
<glyph unicode="&#xe958;" glyph-name="travel-car" d="M102.4 256v153.6h-51.2c-28.277 0-51.2 22.923-51.2 51.2v0c0 28.277 22.923 51.2 51.2 51.2v0h51.2l204.8 358.4h409.6l204.8-358.4h51.2c28.277 0 51.2-22.923 51.2-51.2v0c0-28.277-22.923-51.2-51.2-51.2v0h-51.2v-307.2c0-28.277-22.923-51.2-51.2-51.2v0h-51.2c-28.277 0-51.2 22.923-51.2 51.2v0 51.2h-512v-51.2c0-28.277-22.923-51.2-51.2-51.2v0h-51.2c-28.277 0-51.2 22.923-51.2 51.2v0 153.6zM812.032 512l-146.432 256h-307.2l-146.432-256h600.064zM281.6 256c42.415 0 76.8 34.385 76.8 76.8s-34.385 76.8-76.8 76.8v0c-42.415 0-76.8-34.385-76.8-76.8s34.385-76.8 76.8-76.8v0zM742.4 256c42.415 0 76.8 34.385 76.8 76.8s-34.385 76.8-76.8 76.8v0c-42.415 0-76.8-34.385-76.8-76.8s34.385-76.8 76.8-76.8v0z" />
<glyph unicode="&#xe959;" glyph-name="car" d="M864 256h-736c-35.328 0-64 28.672-64 64v160c0 35.328 28.672 64 64 64h32c0 0 47.328 144 61.312 192s28.672 64 64.032 64h421.312c35.328 0 46.016-9.984 64-64s61.344-192 61.344-192h32c35.328 0 64-28.672 64-64v-160c0-35.328-28.672-64-64-64zM288 320h416v32h-416v-32zM704 544c0 35.328-28.672 68-64 68s-64-32.672-64-68c0-0.832 128-0.832 128 0zM288 384h416v32h-416v-32zM288 448h416v32h-416v-32zM129.984 416c0-35.328 28.672-64 64-64s64 28.672 64 64-28.672 64-64 64-64-28.672-64-64zM738.656 736c-8 22.016-14.304 32-32 32h-194.656v-32h16c8.832 0 16-7.168 16-16s-7.168-16-16-16h-64c-8.832 0-16 7.168-16 16s7.168 16 16 16h16v32h-194.656c-17.696 0-24.032-4-32-32-8.032-28-61.344-192-61.344-192h366.72c0.736 43.648 36.16 84.576 79.84 84.576 43.712 0 79.104-40.896 79.872-84.576h81.568c0 0-53.344 169.984-61.344 192zM798.016 478.016c-35.328 0-64-28.672-64-64s28.672-64 64-64 64 28.672 64 64-28.672 64-64 64zM224 144c0-26.496-21.504-48-48-48s-48 21.504-48 48v80h96v-80zM864 144c0-26.496-21.504-48-48-48s-48 21.504-48 48v80h96v-80z" />
<glyph unicode="&#xe95a;" glyph-name="directions_car" d="M214 468.667h596l-64 192h-468zM746 256.667q26 0 45 19t19 45-19 45-45 19-45-19-19-45 19-45 45-19zM278 256.667q26 0 45 19t19 45-19 45-45 19-45-19-19-45 19-45 45-19zM808 682.667l88-256v-342q0-18-12-30t-30-12h-44q-18 0-30 12t-12 30v44h-512v-44q0-18-12-30t-30-12h-44q-18 0-30 12t-12 30v342l88 256q12 42 62 42h468q50 0 62-42z" />
<glyph unicode="&#xe95b;" glyph-name="call_merge" d="M320 596.667l192 192 192-192h-150v-272l-256-256-60 60 232 230v238h-150zM726 68.667l-146 144 60 60 146-144z" />
<glyph unicode="&#xe95c;" glyph-name="list" d="M737.28 512h-296.96c-28.262 0-30.72-22.886-30.72-51.2s2.458-51.2 30.72-51.2h296.96c28.262 0 30.72 22.886 30.72 51.2s-2.458 51.2-30.72 51.2zM839.68 256h-399.36c-28.262 0-30.72-22.886-30.72-51.2s2.458-51.2 30.72-51.2h399.36c28.262 0 30.72 22.886 30.72 51.2s-2.458 51.2-30.72 51.2zM440.32 665.6h399.36c28.262 0 30.72 22.886 30.72 51.2s-2.458 51.2-30.72 51.2h-399.36c-28.262 0-30.72-22.886-30.72-51.2s2.458-51.2 30.72-51.2zM276.48 512h-92.16c-28.262 0-30.72-22.886-30.72-51.2s2.458-51.2 30.72-51.2h92.16c28.262 0 30.72 22.886 30.72 51.2s-2.458 51.2-30.72 51.2zM276.48 256h-92.16c-28.262 0-30.72-22.886-30.72-51.2s2.458-51.2 30.72-51.2h92.16c28.262 0 30.72 22.886 30.72 51.2s-2.458 51.2-30.72 51.2zM276.48 768h-92.16c-28.262 0-30.72-22.886-30.72-51.2s2.458-51.2 30.72-51.2h92.16c28.262 0 30.72 22.886 30.72 51.2s-2.458 51.2-30.72 51.2z" />
<glyph unicode="&#xe95d;" glyph-name="list1" d="M341.333 640h554.667c23.552 0 42.667 19.115 42.667 42.667s-19.115 42.667-42.667 42.667h-554.667c-23.552 0-42.667-19.115-42.667-42.667s19.115-42.667 42.667-42.667zM341.333 384h554.667c23.552 0 42.667 19.115 42.667 42.667s-19.115 42.667-42.667 42.667h-554.667c-23.552 0-42.667-19.115-42.667-42.667s19.115-42.667 42.667-42.667zM341.333 128h554.667c23.552 0 42.667 19.115 42.667 42.667s-19.115 42.667-42.667 42.667h-554.667c-23.552 0-42.667-19.115-42.667-42.667s19.115-42.667 42.667-42.667zM128 640c23.552 0 42.667 19.115 42.667 42.667s-19.115 42.667-42.667 42.667-42.667-19.115-42.667-42.667 19.115-42.667 42.667-42.667zM128 384c23.552 0 42.667 19.115 42.667 42.667s-19.115 42.667-42.667 42.667-42.667-19.115-42.667-42.667 19.115-42.667 42.667-42.667zM128 128c23.552 0 42.667 19.115 42.667 42.667s-19.115 42.667-42.667 42.667-42.667-19.115-42.667-42.667 19.115-42.667 42.667-42.667z" />
<glyph unicode="&#xe95e;" glyph-name="list-alt" d="M219.429 274.286v-36.571c0-9.714-8.571-18.286-18.286-18.286h-36.571c-9.714 0-18.286 8.571-18.286 18.286v36.571c0 9.714 8.571 18.286 18.286 18.286h36.571c9.714 0 18.286-8.571 18.286-18.286zM219.429 420.571v-36.571c0-9.714-8.571-18.286-18.286-18.286h-36.571c-9.714 0-18.286 8.571-18.286 18.286v36.571c0 9.714 8.571 18.286 18.286 18.286h36.571c9.714 0 18.286-8.571 18.286-18.286zM219.429 566.857v-36.571c0-9.714-8.571-18.286-18.286-18.286h-36.571c-9.714 0-18.286 8.571-18.286 18.286v36.571c0 9.714 8.571 18.286 18.286 18.286h36.571c9.714 0 18.286-8.571 18.286-18.286zM877.714 274.286v-36.571c0-9.714-8.571-18.286-18.286-18.286h-548.571c-9.714 0-18.286 8.571-18.286 18.286v36.571c0 9.714 8.571 18.286 18.286 18.286h548.571c9.714 0 18.286-8.571 18.286-18.286zM877.714 420.571v-36.571c0-9.714-8.571-18.286-18.286-18.286h-548.571c-9.714 0-18.286 8.571-18.286 18.286v36.571c0 9.714 8.571 18.286 18.286 18.286h548.571c9.714 0 18.286-8.571 18.286-18.286zM877.714 566.857v-36.571c0-9.714-8.571-18.286-18.286-18.286h-548.571c-9.714 0-18.286 8.571-18.286 18.286v36.571c0 9.714 8.571 18.286 18.286 18.286h548.571c9.714 0 18.286-8.571 18.286-18.286zM950.857 164.571v475.429c0 9.714-8.571 18.286-18.286 18.286h-841.143c-9.714 0-18.286-8.571-18.286-18.286v-475.429c0-9.714 8.571-18.286 18.286-18.286h841.143c9.714 0 18.286 8.571 18.286 18.286zM1024 786.286v-621.714c0-50.286-41.143-91.429-91.429-91.429h-841.143c-50.286 0-91.429 41.143-91.429 91.429v621.714c0 50.286 41.143 91.429 91.429 91.429h841.143c50.286 0 91.429-41.143 91.429-91.429z" />
<glyph unicode="&#xe95f;" glyph-name="list2" d="M298 640.667h598v-86h-598v86zM298 212.667v86h598v-86h-598zM298 384.667v84h598v-84h-598zM128 554.667v86h86v-86h-86zM128 212.667v86h86v-86h-86zM128 384.667v84h86v-84h-86z" />
<glyph unicode="&#xe960;" glyph-name="th-list" d="M810.667 213.334h-298.667c-47.061 0-85.333-38.272-85.333-85.333s38.272-85.333 85.333-85.333h298.667c47.061 0 85.333 38.272 85.333 85.333s-38.272 85.333-85.333 85.333zM810.667 512h-298.667c-47.061 0-85.333-38.272-85.333-85.333s38.272-85.333 85.333-85.333h298.667c47.061 0 85.333 38.272 85.333 85.333s-38.272 85.333-85.333 85.333zM810.667 810.667h-298.667c-47.061 0-85.333-38.272-85.333-85.333s38.272-85.333 85.333-85.333h298.667c47.061 0 85.333 38.272 85.333 85.333s-38.272 85.333-85.333 85.333zM320 128c0-58.91-47.756-106.667-106.667-106.667s-106.667 47.756-106.667 106.667c0 58.91 47.756 106.667 106.667 106.667 58.91 0 106.667-47.756 106.667-106.667zM320 426.667c0-58.91-47.756-106.667-106.667-106.667s-106.667 47.756-106.667 106.667c0 58.91 47.756 106.667 106.667 106.667 58.91 0 106.667-47.756 106.667-106.667zM320 725.334c0-58.91-47.756-106.667-106.667-106.667s-106.667 47.756-106.667 106.667c0 58.91 47.756 106.667 106.667 106.667 58.91 0 106.667-47.756 106.667-106.667z" />
<glyph unicode="&#xe961;" glyph-name="list-nested" horiz-adv-x="1170" d="M0 886.858c0 40.396 32.747 73.143 73.143 73.143s73.143-32.747 73.143-73.143c0-40.396-32.747-73.143-73.143-73.143s-73.143 32.747-73.143 73.143zM292.572 960h877.714v-146.286h-877.714zM292.572 594.286c0 40.396 32.747 73.143 73.143 73.143s73.143-32.747 73.143-73.143c0-40.396-32.747-73.143-73.143-73.143s-73.143 32.747-73.143 73.143zM585.142 667.428h585.144v-146.286h-585.144zM292.572 9.142c0 40.396 32.747 73.143 73.143 73.143s73.143-32.747 73.143-73.143c0-40.396-32.747-73.143-73.143-73.143s-73.143 32.747-73.143 73.143zM585.142 82.286h585.144v-146.286h-585.144zM585.142 301.714c0 40.396 32.747 73.143 73.143 73.143s73.143-32.747 73.143-73.143c0-40.396-32.747-73.143-73.143-73.143s-73.143 32.747-73.143 73.143zM877.714 374.858h292.572v-146.286h-292.572z" />
<glyph unicode="&#xe962;" glyph-name="person_add_alt" d="M554 596.667q0 48-23 87t-61 62-86 23-86-23-61-62-23-87q0-46 23-85t61-62 86-23 86 23 61 62 23 85zM470 596.667q0-34-25-59t-61-25-61 25-25 59q0 36 25 61t61 25 61-25 25-61zM42 170.667v-86h684v86q0 34-24 61t-63 48-85 34-91 20-79 7-79-7-91-20-85-34-63-48-24-61zM128 170.667q4 12 27 26t61 28 81 23 87 9 87-9 80-23 61-28 28-26h-512zM854 298.667v128h128v86h-128v128h-86v-128h-128v-86h128v-128h86z" />
<glyph unicode="&#xe963;" glyph-name="person_add_alt_1" d="M554 596.667q0 48-23 87t-61 62-86 23-86-23-61-62-23-87q0-46 23-85t61-62 86-23 86 23 61 62 23 85zM640 512.667v-86h128v-128h86v128h128v86h-128v128h-86v-128h-128zM42 170.667v-86h684v86q0 34-24 61t-63 48-85 34-91 20-79 7-79-7-91-20-85-34-63-48-24-61z" />
<glyph unicode="&#xe964;" glyph-name="person_outline" d="M512 384.667q64 0 140-18t139-60 63-94v-128h-684v128q0 52 63 94t139 60 140 18zM512 768.667q70 0 120-51t50-121-50-120-120-50-120 50-50 120 50 121 120 51zM512 302.667q-88 0-174-33t-86-57v-46h520v46q0 24-86 57t-174 33zM512 686.667q-38 0-64-26t-26-64 26-63 64-25 64 25 26 63-26 64-64 26z" />
<glyph unicode="&#xe965;" glyph-name="person" d="M512 340.667q108 0 225-47t117-123v-86h-684v86q0 76 117 123t225 47zM512 426.667q-70 0-120 50t-50 120 50 121 120 51 120-51 50-121-50-120-120-50z" />
<glyph unicode="&#xe966;" glyph-name="user-add-outline" d="M896 341.334h-256c-23.595 0-42.667 19.115-42.667 42.667s19.072 42.667 42.667 42.667h256c23.595 0 42.667-19.115 42.667-42.667s-19.072-42.667-42.667-42.667zM768 213.334c-23.595 0-42.667 19.115-42.667 42.667v256c0 23.552 19.072 42.667 42.667 42.667s42.667-19.115 42.667-42.667v-256c0-23.552-19.072-42.667-42.667-42.667zM384 682.667c70.571 0 128-57.429 128-128s-57.429-128-128-128-128 57.429-128 128 57.429 128 128 128zM384 768c-117.931 0-213.333-95.488-213.333-213.333s95.403-213.333 213.333-213.333 213.333 95.488 213.333 213.333-95.403 213.333-213.333 213.333zM384 213.334c86.229 0 140.843-32.896 161.408-61.653-29.141-11.093-84.011-23.68-161.408-23.68-84.651 0-136.789 13.013-162.901 23.125 19.584 30.507 75.819 62.208 162.901 62.208zM384 298.667c-160 0-256-85.333-256-170.667 0-42.667 96-85.333 256-85.333 150.101 0 256 42.667 256 85.333s-100.437 170.667-256 170.667z" />
<glyph unicode="&#xe967;" glyph-name="user-add" d="M384 341.334c58.923 0 112.256 23.893 150.869 62.507 38.571 38.571 62.464 91.904 62.464 150.827s-23.893 112.256-62.464 150.827c-38.613 38.613-91.947 62.507-150.869 62.507s-112.256-23.893-150.869-62.507c-38.571-38.571-62.464-91.904-62.464-150.827s23.893-112.256 62.464-150.827c38.613-38.613 91.947-62.507 150.869-62.507zM384 42.667c150.101 0 256 42.667 256 85.333 0 85.333-100.437 170.667-256 170.667-160 0-256-85.333-256-170.667 0-42.667 96-85.333 256-85.333zM896 426.667h-85.333v85.333c0 23.595-19.072 42.667-42.667 42.667s-42.667-19.072-42.667-42.667v-85.333h-85.333c-23.595 0-42.667-19.072-42.667-42.667s19.072-42.667 42.667-42.667h85.333v-85.333c0-23.595 19.072-42.667 42.667-42.667s42.667 19.072 42.667 42.667v85.333h85.333c23.595 0 42.667 19.072 42.667 42.667s-19.072 42.667-42.667 42.667z" />
<glyph unicode="&#xe968;" glyph-name="user" d="M725.333 554.667c0 58.923-23.893 112.256-62.464 150.827-38.613 38.613-91.947 62.507-150.869 62.507s-112.256-23.893-150.869-62.507c-38.571-38.571-62.464-91.904-62.464-150.827s23.893-112.256 62.464-150.827c38.613-38.613 91.947-62.507 150.869-62.507s112.256 23.893 150.869 62.507c38.571 38.571 62.464 91.904 62.464 150.827zM256 128c0-42.667 96-85.333 256-85.333 150.101 0 256 42.667 256 85.333 0 85.333-100.437 170.667-256 170.667-160 0-256-85.333-256-170.667z" />
<glyph unicode="&#xe969;" glyph-name="user1" d="M763.688 469.188c2.374 13.936 4.312 28.124 4.312 42.812v192c0 141.376-114.624 256-256 256s-256-114.624-256-256v-192c0-14.688 1.938-28.876 4.312-42.812-154.874-55-260.312-157.938-260.312-277.188v-192c0-35.376 28.624-64 64-64h896c35.376 0 64 28.624 64 64v192c0 119.25-105.438 222.188-260.312 277.188zM384 704c0 70.688 57.312 128 128 128s128-57.312 128-128v-192c0-70.688-57.312-128-128-128s-128 57.312-128 128v192zM896 64h-768v128c0 69.124 73.624 129.188 183.188 163 46.874-59.876 118.936-99 200.812-99s153.938 39.124 200.812 99c109.564-33.812 183.188-93.876 183.188-163v-128z" />
<glyph unicode="&#xe96a;" glyph-name="user2" horiz-adv-x="768" d="M384 448c-212 0-384-172-384-384 0-70.752 57.248-128 128-128h512c70.752 0 128 57.248 128 128 0 212-172 384-384 384zM192 768c0 106.039 85.961 192 192 192s192-85.961 192-192c0-106.039-85.961-192-192-192s-192 85.961-192 192z" />
<glyph unicode="&#xe96b;" glyph-name="eye-off" d="M432.128 716.203c27.776 6.485 55.296 9.429 79.36 9.131 75.008 0 141.184-23.851 198.741-59.435 47.744-29.525 89.131-66.859 123.477-104.448 27.477-30.080 50.133-59.947 67.627-85.376 13.952-20.267 24.32-37.291 31.275-49.28-23.296-40.661-49.493-77.696-75.861-108.459-15.317-17.877-13.269-44.843 4.608-60.16s44.843-13.269 60.16 4.608c34.901 40.704 68.736 90.112 97.408 143.787 6.315 11.904 6.955 26.368 0.555 39.211 0 0-16.896 33.664-47.787 78.635-19.243 27.989-44.288 61.099-74.965 94.635-38.144 41.771-85.504 84.779-141.611 119.467-68.053 42.027-149.589 72.149-242.603 72.149-31.317 0.384-65.707-3.371-99.84-11.349-22.955-5.376-37.205-28.331-31.829-51.285s28.331-37.205 51.285-31.829zM427.819 450.475l107.989-107.989c-7.765-2.603-15.872-4.011-24.021-4.309-21.888-0.768-43.947 6.784-61.184 22.869s-26.325 37.547-27.093 59.435c-0.341 10.155 1.067 20.309 4.309 30.037zM255.275 623.062l108.928-108.928c-18.517-29.483-27.136-63.317-25.941-96.683 1.536-43.605 19.755-86.741 54.229-118.827s78.763-47.232 122.368-45.696c29.525 1.024 58.837 9.728 84.651 25.941l99.072-99.072c-58.795-34.091-123.52-51.029-187.051-51.797-73.984 0-140.16 23.851-197.717 59.435-47.744 29.525-89.131 66.859-123.477 104.448-27.477 30.080-50.133 59.947-67.627 85.376-13.909 20.267-24.32 37.248-31.232 49.237 44.8 77.739 101.376 144.171 163.883 196.565zM12.501 865.835l182.229-182.229c-73.856-63.104-139.477-143.275-189.653-236.757-6.315-11.904-6.997-26.411-0.555-39.253 0 0 16.896-33.664 47.787-78.635 19.243-27.989 44.288-61.099 74.965-94.635 38.144-41.771 85.504-84.779 141.611-119.467 68.053-42.069 149.589-72.192 243.627-72.192 85.035 1.024 171.477 25.643 248.107 75.051l190.549-190.549c16.683-16.683 43.691-16.683 60.331 0s16.683 43.691 0 60.331l-378.709 378.709c-0.085 0.085-0.213 0.213-0.299 0.299l-179.584 179.627c-0.341 0.299-0.683 0.683-1.024 1.024l-379.051 379.008c-16.683 16.683-43.691 16.683-60.331 0s-16.683-43.691 0-60.331z" />
</font>
</defs>
</svg>
